2.17GB / Ограбление по-женски (1-4 серии из 4) (Ашот Кещян) [2014, детектив, SATRip]

Категория: фильмы » Детективы
рейтинг из 5
  • Добавил: zlidny
  • Дата: 12/10/14, 21:15:20
  • Просмотры: 254
  • Отзывы: 0
?????
Название игры:
Год выхода игры:
Жанр игры: Детективы

Формат: SATRip, AVI, DivX, MP3
Режиссер: Ашот Кещян
Жанр: детектив
Продолжительность: 4 x ~ 00:45:00
Год выпуска: 2014
В ролях: Ирма Витовская, Римма Зюбина, Ольга Тумайкина, Николай Боклан, Борис Георгиевский, Михаил Жонин, Сергей Калантай, Олег Савкин
Описание:
Грабить банки – совсем не женское дело. Но если жизнь заставит, то наши женщины справятся и с этим. Нина, Тома и Света – закадычные подруги. Возмущённые жизненной несправедливостью, они решают проникнуть в хранилище банка и забрать свои вклады. И это им удаётся.



Видео: 720x400 (16:9), 25 fps, DivX5 MPEG-4 ~1600 kbps avg, 0.222 bit/pixel
Аудио: 48 kHz, MPEG Layer 3, 2 ch, ~128.00 kbps avg
 

MI
Общее
Полное имя : C:\Users\Admin\Downloads\Ograblenie.po.zhenski.01.avi
Формат : AVI
Формат/Информация : Audio Video Interleave
Размер файла : 557 Мбайт
Продолжительность : 44 м.
Общий поток : 1740 Кбит/сек
Программа кодирования : transcode-1.1.5

Видео
Идентификатор : 0
Формат : MPEG-4 Visual
Параметр BVOP формата : Да
Параметр QPel формата : Нет
Параметр GMC формата : Без точки перехода
Параметр матрицы формата : Default (H.263)
Идентификатор кодека : DX50
Идентификатор кодека/Подсказка : DivX 5
Продолжительность : 44 м.
Битрейт : 1600 Кбит/сек
Ширина : 720 пикселей
Высота : 400 пикселей
Соотношение сторон : 16:9
Частота кадров : 25,000 кадров/сек
Цветовое пространство : YUV
Субдискретизация насыщенности : 4:2:0
Битовая глубина : 8 бит
Тип развёртки : Прогрессивная
Метод сжатия : С потерями
Бит/(Пиксели*Кадры) : 0.222
Размер потока : 512 Мбайт (92%)
Библиотека кодирования : Intel(R) MPEG-4 encoder based on Intel(R) IPP 6.1 build 137.20[6.1.137.763]

Аудио
Идентификатор : 1
Формат : MPEG Audio
Версия формата : Version 1
Профиль формата : Layer 3
Режим : Joint stereo
Расширение режима : MS Stereo
Идентификатор кодека : 55
Идентификатор кодека/Подсказка : MP3
Продолжительность : 44 м.
Вид битрейта : Постоянный
Битрейт : 128 Кбит/сек
Каналы : 2 канала
Частота : 48,0 КГц
Метод сжатия : С потерями
Размер потока : 40,9 Мбайт (7%)
Выравнивание : Соединение по промежуткам
Продолжительность промежутка : 24 мс. (0,60 видеокадр)
Время предзагрузки промежутка : 48 мс.
Библиотека кодирования : LAME3.98.2

скриншоты






Статистика торрента
Раздают: 9 Качают: 158 Размер: 2.17GB Скачали: 18
Имя файла: 38430_ograblenie-tfil.torrent
Похожие торренты
Отзывы пользователей
Добавить отзыв