2.15GB / Хроника гнусных времен (4 серии из 4) (Петр Амелин) [2014, детектив, SATRip]

Категория: фильмы » Детективы
рейтинг из 5
  • Добавил: zlidny
  • Дата: 14/09/14, 17:09:15
  • Просмотры: 233
  • Отзывы: 0
?????
Название игры:
Год выхода игры:
Жанр игры: Детективы

Формат: SATRip, AVI, DivX, MP3
Режиссер: Петр Амелин
Жанр: детектив
Продолжительность: 4 x ~ 00:45:00
Год выпуска: 2014
В ролях: Полина Стрельникова, Антон Хабаров, Татьяна Самарина, Ольга Самошина, Хельга Филиппова, Наталья Ткаченко, Игорь Головин, Мария Зимина, Денис Пьянов, Марина Доможирова, Сергей Яценюк, Елизавета Нилова, Дмитрий Гирев, Лев Елисеев, Сергей Бызгу, Максим Фомин, Инна Ярмошук, Галина Мочалова, Игорь Сладкевич
Описание:
По мотивам одноименного романа Татьяны Устиновой. Кирилл никак не предполагал, что Настя Сотникова, которую онслучайно встретил в Петербурге, окажется ему настолько дорога, что он, плюнув на поездку в Дублин, будет заниматься расследованием смерти ее бабушки. Настя не верит, что бабушка погибла, уронив в ванну фен. Кирилл, обследовав дом, согласен с ней. И теперь он должен выяснить: на какие деньги полвека безбедно существовала старушка, которая оставила наследникам и бриллиантовое колье стоимостью в сто тысяч долларов, и домик на берегу Финского залива, и старинную восточную библиотеку.



Видео: 720x384 (1.88:1), 25 fps, DivX 5 MPEG-4 ~1499 kbps avg, 0.217 bit/pixel
Аудио: 48 kHz, MPEG Layer 3, 2 ch, ~128.00 kbps avg
 

MI
Общее
Полное имя : C:\Users\Admin\Downloads\Hronika.gnusnyh.vremen.SATRip\Hronika.gnusnyh.vremen.01.SATRip..avi
Формат : AVI
Формат/Информация : Audio Video Interleave
Размер файла : 510 Мбайт
Продолжительность : 43 м.
Общий поток : 1641 Кбит/сек

Видео
Идентификатор : 0
Формат : MPEG-4 Visual
Параметр BVOP формата : 1
Параметр QPel формата : Нет
Параметр GMC формата : Без точки перехода
Параметр матрицы формата : Default (H.263)
Идентификатор кодека : DX50
Идентификатор кодека/Подсказка : DivX 5
Продолжительность : 43 м.
Битрейт : 1499 Кбит/сек
Ширина : 720 пикселей
Высота : 384 пикселя
Соотношение сторон : 1,85:1
Частота кадров : 25,000 кадров/сек
Цветовое пространство : YUV
Субдискретизация насыщенности : 4:2:0
Битовая глубина : 8 бит
Тип развёртки : Прогрессивная
Метод сжатия : С потерями
Бит/(Пиксели*Кадры) : 0.217
Размер потока : 466 Мбайт (91%)
Библиотека кодирования : DivX 6.8.5 (UTC 2009-08-20)

Аудио
Идентификатор : 1
Формат : MPEG Audio
Версия формата : Version 1
Профиль формата : Layer 3
Режим : Joint stereo
Расширение режима : MS Stereo
Идентификатор кодека : 55
Идентификатор кодека/Подсказка : MP3
Продолжительность : 43 м.
Вид битрейта : Постоянный
Битрейт : 128 Кбит/сек
Каналы : 2 канала
Частота : 48,0 КГц
Метод сжатия : С потерями
Размер потока : 39,8 Мбайт (8%)
Выравнивание : Соединение по промежуткам
Продолжительность промежутка : 24 мс. (0,60 видеокадр)

скриншоты





Статистика торрента
Раздают: 64 Качают: 194 Размер: 2.15GB Скачали: 10
Имя файла: 37695_hronika-tfile.r.torrent
Похожие торренты
Отзывы пользователей
Добавить отзыв