2.05GB / Зачем тебе алиби? (4 серии из 4) (Рауф Кубаев) [2003, детектив, DVDRip]

Категория: фильмы » Детективы
рейтинг из 5
  • Добавил: zlidny
  • Дата: 09/10/14, 16:39:09
  • Просмотры: 510
  • Отзывы: 0
?????
Название игры:
Год выхода игры:
Жанр игры: Детективы

Формат: DVDRip, AVI, XviD, MP3
Режиссер: Рауф Кубаев
Жанр: детектив
Продолжительность: 4 x ~ 00:46:09
Год выпуска: 2003
В ролях: Ольга Арнтгольц, Татьяна Арнтгольц, Александр Домогаров, Александр Соковиков, Дмитрий Орлов, Екатерина Никитина, Даниил Спиваковский, Дарья Повереннова, Ольга Остроумова, Александр Тютин, Михаил Жигалов, Вадим Андреев, Антон Корольков, Денис Назаренко, Марина Зубанова, Денис Надточий, Василий Стоноженко, Аркадий Раскин, Константин Карасик, Наталья Третьякова (II), Виктория Смирнова, Рафаэль Мукаев, Олег Каменщиков, Данила Перов
Описание:
Жизнь симпатичной и привлекательной Анжелики изменилась, едва она познакомилась с Игорем. На смену ее тинейджерским роликам приходит дорогой автомобиль, стареньким джинсам – шикарные вечерние наряды, а беззаботной юности – брак со всеми вытекающими последствиями. Со дня их знакомства проходит несколько лет. Игорь становится не таким обходительным со своей второй половиной, и Анжелика все чаще чувствует себя птичкой в золотой клетке. Ее спасением становится игра… Только в казино она ощущает себя независимой. У Анжелики появляются новые знакомства. И… новые проблемы. Главная из них – смерть мужа. Игоря находят мертвым в собственной квартире. Подозреваемых – масса. И главные из них – сама Анжелика и таинственная незнакомка - часть второй, закулисной, жизни Игоря.



Видео: 720x416 (1.73:1), 25 fps, XviD build 47 ~1456 kbps avg, 0.194 bit/pixel
Аудио: 48 kHz, MPEG Layer 3, 2 ch, ~224.00 kbps avg
Тех. данные файлов идентичны.
 

MI
Общее
Полное имя : C:\Users\Irina\Downloads\Zachem.tebe.alibi.(4.serii.iz.4.).2003.XviD.DVDRip\Zachem.tebe.alibi.4.ser.avi
Формат : AVI
Формат/Информация : Audio Video Interleave
Размер файла : 578 Мбайт
Продолжительность : 47 м.
Общий поток : 1689 Кбит/сек
Программа кодирования : VirtualDubMod 1.5.4.1 (build 2178/release)
Библиотека кодирования : VirtualDubMod build 2178/release

Видео
Идентификатор : 0
Формат : MPEG-4 Visual
Профиль формата : Advanced Simple@L5
Параметр BVOP формата : 1
Параметр QPel формата : Нет
Параметр GMC формата : Без точки перехода
Параметр матрицы формата : Выборочная
Идентификатор кодека : XVID
Идентификатор кодека/Подсказка : XviD
Продолжительность : 47 м.
Битрейт : 1456 Кбит/сек
Ширина : 720 пикселей
Высота : 416 пикселей
Соотношение сторон : 1,731
Частота кадров : 25,000 кадров/сек
Цветовое пространство : YUV
Субдискретизация насыщенности : 4:2:0
Битовая глубина : 8 бит
Тип развёртки : Прогрессивная
Метод сжатия : С потерями
Бит/(Пиксели*Кадры) : 0.194
Размер потока : 498 Мбайт (86%)
Библиотека кодирования : XviD 1.2.0.dev47 (UTC 2006-11-01)

Аудио
Идентификатор : 1
Формат : MPEG Audio
Версия формата : Version 1
Профиль формата : Layer 3
Режим : Joint stereo
Расширение режима : MS Stereo
Идентификатор кодека : 55
Идентификатор кодека/Подсказка : MP3
Продолжительность : 47 м.
Вид битрейта : Постоянный
Битрейт : 224 Кбит/сек
Каналы : 2 канала
Частота : 48,0 КГц
Метод сжатия : С потерями
Размер потока : 76,7 Мбайт (13%)
Выравнивание : Соединение по промежуткам
Продолжительность промежутка : 40 мс. (1,00 видеокадр)
Время предзагрузки промежутка : 504 мс.
Библиотека кодирования : LAME
Язык : Russian

скриншоты





Статистика торрента
Раздают: 239 Качают: 194 Размер: 2.05GB Скачали: 12
Имя файла: 38353_zachem-tfile.ru.torrent
Похожие торренты
Отзывы пользователей
Добавить отзыв