2.05GB / Ловушка (1-4 серии из 4) (Сергей Лысенко) [2009, триллер, мелодрама, детектив, DVDRip]

Категория: фильмы » Детективы
рейтинг из 5
  • Добавил: zlidny
  • Дата: 16/07/14, 19:31:46
  • Просмотры: 324
  • Отзывы: 0
?????
Название игры:
Год выхода игры:
Жанр игры: Мелодрамы, Триллеры, Детективы

Формат: DVDRip, AVI, XviD, AC3
Режиссер: Сергей Лысенко
Жанр: триллер, мелодрама, детектив
Продолжительность: 4 x ~ 00:44:30
Год выпуска: 2009
В ролях: Дарья Мороз, Светлана Ходченкова, Даниил Страхов, Михаил Тарабукин, Поля Полякова, Наталья Лесниковская, Людмила Чурсина
Описание:
Много лет назад, четверо подростков, бравируя друг перед другом, совершают ужасный поступок — убийство и ограбление пожилой дамы, известной своим неординарным прошлым.…Прошли годы. Участники трагедии стали взрослыми людьми и собрались под крышей респектабельного офиса, чтобы выяснить — у кого же все-таки находятся драгоценности убитой. В результате выяснения отношений начинается цепочка странной гибели бывших «подельников».Оставшиеся в живых подозревают друг друга. Но развязка истории превзошла все их подозрения…



Видео: 704x384 (16:9), 25 fps, XviD MPEG-4 ~1402 kbps avg, 0.207 bit/pixel
Аудио: 48 kHz, АС3, 2 ch, ~192.00 kbps avg
Тех. данные файлов идентичны.
 

MI
General
Complete name : D:\Documents and Settings\Assassin.BLACKEDITION\Рабочий стол\Lovushka.2009.O.DVDRip.avi
Format : AVI
Format/Info : Audio Video Interleave
Format profile : OpenDML
File size : 2.06 GiB
Duration : 3h 3mn
Overall bit rate : 1 607 Kbps
Writing application : VirtualDubMod 1.5.10.2 (build 2540/release)
Writing library : VirtualDubMod build 2540/release

Video
ID : 0
Format : MPEG-4 Visual
Format profile : Advanced Simple@L5
Format settings, BVOP : Yes
Format settings, QPel : Yes
Format settings, GMC : No warppoints
Format settings, Matrix : Custom
Codec ID : XVID
Codec ID/Hint : XviD
Duration : 3h 3mn
Bit rate : 1 402 Kbps
Width : 704 pixels
Height : 384 pixels
Display aspect ratio : 16:9
Frame rate : 25.000 fps
Resolution : 8 bits
Colorimetry : 4:2:0
Scan type : Progressive
Bits/(Pixel*Frame) : 0.207
Stream size : 1.79 GiB (87%)
Writing library : XviD 1.2.1 (UTC 2008-12-04)

Audio
ID : 1
Format : AC-3
Format/Info : Audio Coding 3
Format_Settings_ModeExtension : CM (complete main)
Codec ID : 2000
Duration : 3h 3mn
Bit rate mode : Constant
Bit rate : 192 Kbps
Channel(s) : 2 channels
Channel positions : Front: L R
Sampling rate : 48.0 KHz
Stream size : 251 MiB (12%)
Alignment : Aligned on interleaves
Interleave, duration : 40 ms (1.00 video frame)
Interleave, preload duration : 512 ms

скриншоты







Статистика торрента
Раздают: 13 Качают: 31 Размер: 2.05GB Скачали: 29
Имя файла: 35917_lovushka-tfile..torrent
Похожие торренты
Отзывы пользователей
Добавить отзыв