Вихрь / Wind Blast (2010) DVDScr

Категория: фильмы » Боевики
рейтинг из 5
  • Добавил: Дмитрий
  • Дата: 25/12/10, 07:53:58
  • Просмотры: 744
  • Отзывы: 0
?????
Название игры:
Год выхода игры:
Жанр игры: Боевики
Страна: Китай
Жанр: Боевик, Детектив, Драма
Год выпуска: 2010
Продолжительность: 1:56:01.054

Перевод: Авторский (одноголосый закадровый) Доп.инфо о переводе @PD
Cубтитры: английские
Режиссер: Гао Цуншу / Gao Qunshu

В ролях: Ву Чжин / Wu Jing, Жанг Ли / Zhang Li, Фрэнсис Нг Чун-ю /Francis NG Chun-Yu

Описание: Отряд быстрого реагирования, состоящий из 4 человек преследует наемного убийцу по имени Жанг Нинь. Преступник сам усложнил себе передвижение, взяв с собой свою девушку, Сун Чжин, которая ждала от него ребенка. Детективы мгновенно используют появившееся преимущество и арестовывают их обоих. Однако по-пути домой неожиданно выясняется, что они были не единственные, кто охотился за головой Жанг Ниня...


Качество видео: DVDScreener
Формат видео: AVI

Видео: 720x304 (2.37:1), 29.970 fps, XviD MPEG-4 ~1332 kbps avg, 0.20 bit/pixel
Аудио: 48 kHz, AC3 Dolby Digital, 3/2 (L,C,R,l,r) + LFE ch, ~448.00 kbps avg
Формат субтитров: hardsub (неотключаемые)

MediaInfo

General

Complete name : Вихрь - Wind Blas (2010) - DVDScr.avi
Format : AVI
Format/Info : Audio Video Interleave
File size : 1.45 GiB
Duration : 1h 56mn
Overall bit rate : 1 792 Kbps
Writing application : VirtualDubMod 1.5.10.2 (build 2540/release)
Writing library : VirtualDubMod build 2540/release

Video
ID : 0
Format : MPEG-4 Visual
Format profile : Advanced Simple@L5
Format settings, BVOP : Yes
Format settings, QPel : No
Format settings, GMC : No warppoints
Format settings, Matrix : Custom
Muxing mode : Packed bitstream
Codec ID : XVID
Codec ID/Hint : XviD
Duration : 1h 56mn
Bit rate : 1 332 Kbps
Width : 720 pixels
Height : 304 pixels
Display aspect ratio : 2.35:1
Frame rate : 29.970 fps
Color space : YUV
Chroma subsampling : 4:2:0
Bit depth : 8 bits
Scan type : Progressive
Bits/(Pixel*Frame) : 0.203
Stream size : 1.08 GiB (74%)
Writing library : XviD 1.2.1 (UTC 2008-12-04)

Audio
ID : 1
Format : AC-3
Format/Info : Audio Coding 3
Mode extension : CM (complete main)
Codec ID : 2000
Duration : 1h 56mn
Bit rate mode : Constant
Bit rate : 448 Kbps
Channel(s) : 6 channels
Channel positions : Front: L C R, Side: L R, LFE
Sampling rate : 48.0 KHz
Bit depth : 16 bits
Stream size : 372 MiB (25%)
Alignment : Split accross interleaves
Interleave, duration : 33 ms (1.00 video frame)
Interleave, preload duration : 500 ms



Скриншоты
показано из right left
Статистика торрента
Раздают: 176 Качают: 133 Размер: 1.45 GB Скачали: 69
Имя файла: 308_-Wind_Blas-2010.rar
Похожие торренты
Отзывы пользователей
Добавить отзыв