Великолепная семерка / The Magnificent Seven (Антуан Фукуа / Antoine Fuqua) [2016, боевик, приключения, вестерн, BDRip-AVC] VO [Solod]

Категория: фильмы » Боевики
рейтинг из 5
  • Добавил: zlidny
  • Дата: 15/12/16, 12:42:47
  • Просмотры: 163
  • Отзывы: 0
?????
Название игры:
Год выхода игры:
Жанр игры: Вестерны, Приключения, Боевики

Перевод: Любительский (одноголосый) Solod

Cубтитры: отсутствуют

Реклама: отсутствует



Формат: BDRip-AVC, MKV, H.264, AC3

Страна: США

Режиссер: Антуан Фукуа / Antoine Fuqua

Жанр: боевик, приключения, вестерн

Продолжительность: 02:12:50

Год выпуска: 2016



В ролях: Дензел Вашингтон (Chisolm), Крис Пратт (Josh Faraday), Итан Хоук (Goodnight Robicheaux), Винсент Д Онофрио (Jack Horne), Ли Бён-хон (Billy Rocks), Мануэль Рульфо (Vasquez), Мартин Сенсмейер (Red Harvest), Хейли Беннетт (Emma Cullen), Питер Сарсгаард (Bartholomew Bogue), Люк Граймс (Teddy Q), Мэтт Бомер (Matthew Cullen), Кэм Жиганде (McCann)



Описание: Семеро отважных искателей приключений встают на защиту жителей маленького городка, угнетаемого бандой грабителей.







Видео: 1024x430 (2.40:1), 23.976 fps, AVC(H264), High@L4.1, 1900 kbps, 0.180 bpp

Аудио: 48.0 kHz, AC3 Dolby Digital, 3/2 (L,C,R,l,r) + LFE ch, 448 kbps



Release Group:



MI

 









Код:
General

Unique ID                                : 169672106021406600857528693098915280509 (0x7FA5A8B2594D5E134842376A86CFB67D)

Complete name                            : the.magnificent.seven.2016.1024.solod.rus.5.1.mkv

Format                                   : Matroska

Format version                           : Version 4 / Version 2

File size                                : 2.18 GiB

Duration                                 : 2 h 12 min

Overall bit rate                         : 2 350 kb/s

Movie name                               : The Magnificent Seven | 2016 | Solod

Released date                            : 2016

Encoded date                             : UTC 2016-12-14 21:56:05 / UTC 2016-12-12T10:51:57Z

Writing application                      : mkvmerge v9.6.0 ('Slave To Your Mind' wink 64bit

Writing library                          : libebml v1.3.4 + libmatroska v1.4.5 / Lavf55.12.0



Video

ID                                       : 1

Format                                   : AVC

Format/Info                              : Advanced Video Codec

Format profile                           : High@L4

Format settings, CABAC                   : Yes

Format settings, ReFrames                : 10 frames

Codec ID                                 : V_MPEG4/ISO/AVC

Duration                                 : 2 h 12 min

Bit rate                                 : 1 900 kb/s

Width                                    : 1 024 pixels

Height                                   : 430 pixels

Display aspect ratio                     : 2.40:1

Original display aspect ratio            : 2.40:1

Frame rate mode                          : Constant

Frame rate                               : 23.976 (24000/1001) FPS

Color space                              : YUV

Chroma subsampling                       : 4:2:0

Bit depth                                : 8 bits

Scan type                                : Progressive

Bits/(Pixel*Frame)                       : 0.180

Stream size                              : 1.72 GiB (79 wacko

Writing library                          : x264 core 148

Encoding settings                        : cabac=1 / ref=10 / deblock=1:-2:-2 / analyse=0x3:0x113 / me=umh / subme=11 / psy=1 / psy_rd=1,15:0,20 / mixed_ref=1 / me_range=24 / chroma_me=1 / trellis=2 / 8x8dct=1 / cqm=0 / deadzone=21,11 / fast_pskip=1 / chroma_qp_offset=-3 / threads=6 / lookahead_threads=1 / sliced_threads=0 / nr=0 / decimate=1 / interlaced=0 / bluray_compat=0 / constrained_intra=0 / bframes=11 / b_pyramid=2 / b_adapt=1 / b_bias=0 / direct=1 / weightb=1 / open_gop=0 / weightp=2 / keyint=240 / keyint_min=24 / scenecut=40 / intra_refresh=0 / rc_lookahead=40 / rc=2pass / mbtree=1 / bitrate=1900 / ratetol=1,0 / qcomp=0,60 / qpmin=0 / qpmax=69 / qpstep=4 / cplxblur=20,0 / qblur=0,5 / vbv_maxrate=62500 / vbv_bufsize=78125 / nal_hrd=none / filler=0 / ip_ratio=1,40 / aq=1:1,00

Default                                  : Yes

Forced                                   : No

Color range                              : Limited

Color primaries                          : BT.709

Transfer characteristics                 : BT.709

Matrix coefficients                      : BT.709

Statistics Tags Issue                    : mkvmerge v9.6.0 ('Slave To Your Mind' wink 64bit 2016-12-14 21:56:05 / mkvmerge v9.6.0 ('Slave To Your Mind' wink 64bit 2016-12-14 21:56:05 / UTC 2016-12-12T10:51:57Z

FromStats_BitRate                        : 1899785

FromStats_Duration                       : 02:12:50.046000000

FromStats_FrameCount                     : 191090

FromStats_StreamSize                     : 1892672151



Audio

ID                                       : 2

Format                                   : AC-3

Format/Info                              : Audio Coding 3

Mode extension                           : CM (complete main)

Format settings, Endianness              : Big

Codec ID                                 : A_AC3

Duration                                 : 2 h 12 min

Bit rate mode                            : Constant

Bit rate                                 : 448 kb/s

Channel(s)                               : 6 channels

Channel positions                        : Front: L C R, Side: L R, LFE

Sampling rate                            : 48.0 kHz

Frame rate                               : 31.250 FPS (1536 spf)

Bit depth                                : 16 bits

Compression mode                         : Lossy

Delay relative to video                  : -83 ms

Stream size                              : 426 MiB (19 wacko

Title                                    : vo solod

Language                                 : Russian

Default                                  : Yes

Forced                                   : No

Statistics Tags Issue                    : mkvmerge v9.6.0 ('Slave To Your Mind' wink 64bit 2016-12-14 21:56:05 / mkvmerge v9.6.0 ('Slave To Your Mind' wink 64bit 2016-12-14 21:56:05 / UTC 2016-12-12T10:51:57Z

FromStats_BitRate                        : 448000

FromStats_Duration                       : 02:12:50.080000000

FromStats_FrameCount                     : 249065

FromStats_StreamSize                     : 446324480



Menu

00:00:00.000                             : :Chapter 1

00:04:53.835                             : :Chapter 2

00:11:27.687                             : :Chapter 3

00:18:12.716                             : :Chapter 4

00:25:17.974                             : :Chapter 5

00:31:56.122                             : :Chapter 6

00:36:53.961                             : :Chapter 7

00:42:05.689                             : :Chapter 8

00:50:23.145                             : :Chapter 9

00:59:58.011                             : :Chapter 10

01:06:49.797                             : :Chapter 11

01:16:08.522                             : :Chapter 12

01:23:26.001                             : :Chapter 13

01:34:06.349                             : :Chapter 14

01:44:19.920                             : :Chapter 15

01:54:47.505                             : :Chapter 16



 



скриншоты








Скачал сам, помоги другим! Пиявки полезны только в медицине


Статистика торрента
Раздают: 54 Качают: 193 Размер: 2.18GB Скачали: 1
Имя файла: 41756_the.magnificent.torrent
Похожие торренты
Отзывы пользователей
Добавить отзыв