Сильнейший удар: Бой до смерти / Shootfighter: Fight to the Death (1992) BDRip [H.264/1080p-LQ]

Категория: фильмы » Боевики
рейтинг из 5
  • Добавил: zlidny
  • Дата: 15/12/16, 16:38:04
  • Просмотры: 249
  • Отзывы: 0
?????
Название игры:
Год выхода игры:
Жанр игры: Боевики

Производство: США / ANA Productions

Жанр: Боевик



Режиссер: Патрик Алан

Актеры: Боло Йенг, Мэриам д’Або, Уильям Забка, Майкл Бернардо, Сигал Дайэмант, Мартин Коув, Эдвард Альберт, Джеймс Пак, Джо Сон, Хаким Олстон



Описание:

Два друга, ученики мастера Шинго, приехали на подпольный турнир бойцов, поединки которого ведутся до смертельного исхода.

Драматически складывается не только ход турнира, но и взаимоотношения друзей. Но на ринг выходит мастер Шинго…



pic pic

Возраст: 18+ зрителям, достигшим 18 лет. запрещено для детей)

Рейтинг MPAA: R (лицам до 17 лет обязательно присутствие взрослого)



Релиз от: R.G. Goldenshara



Продолжительность: 01:35:45

Качество видео: BDRip (1080p-LQ)pic

Перевод: Двухголосый закадровый, профессиональный, авторский



Видео: AVC/H.264, 1920x1080 (16:9), ~5961 kbps, 23,976 fps

Аудио #1: AC3, 2 ch, 48 kHz, 192 kbps, CBR | DVO (Рен ТВ)

Аудио #2: AC3, 2 ch, 48 kHz, 192 kbps, CBR | AVO (Гаврилов)

Аудио #3: AC3, 2 ch, 48 kHz, 192 kbps, CBR | AVO (Визгунов)




Mediainfo:



 
General
Unique ID : 207602715076903163858467060077911530465 (0x9C2ED41BDED86ED68ACE6CC2DCB6DBE1)
Complete name : E:\Мои рипы\Сильнейший удар.Бой до смерти.1992.BDRip.1080p.DVO+2AVO.mkv
Format : Matroska
Format version : Version 4 / Version 2
File size : 4.37 GiB
Duration : 1 h 35 min
Overall bit rate : 6 533 kb/s
Movie name : Shootfighter. Fight to the Death (1993) by Freak Chaos
Encoded date : UTC 2016-12-14 16:17:01
Writing application : mkvmerge v6.8.0 ('Theme for Great Cities' wink 32bit built on Mar 2 2014 21:27:07
Writing library : libebml v1.3.0 + libmatroska v1.4.1

Video
ID : 1
Format : AVC
Format/Info : Advanced Video Codec
Format profile : High@L4.1
Format settings, CABAC : Yes
Format settings, ReFrames : 4 frames
Codec ID : V_MPEG4/ISO/AVC
Duration : 1 h 35 min
Bit rate : 5 961 kb/s
Width : 1 920 pixels
Height : 1 080 pixels
Display aspect ratio : 16:9
Frame rate mode : Constant
Frame rate : 23.976 FPS
Color space : YUV
Chroma subsampling : 4:2:0
Bit depth : 8 bits
Scan type : Progressive
Bits/(Pixel*Frame) : 0.120
Stream size : 3.90 GiB (89 wacko
Writing library : x264 core 146 r2538 121396c
Encoding settings : cabac=1 / ref=4 / deblock=1:-3:-3 / analyse=0x3:0x113 / me=umh / subme=11 / psy=1 / psy_rd=1.00:0.15 / mixed_ref=1 / me_range=48 / chroma_me=1 / trellis=2 / 8x8dct=1 / cqm=0 / deadzone=21,11 / fast_pskip=0 / chroma_qp_offset=-4 / threads=6 / lookahead_threads=1 / sliced_threads=0 / nr=0 / decimate=1 / interlaced=0 / bluray_compat=0 / constrained_intra=0 / bframes=8 / b_pyramid=2 / b_adapt=2 / b_bias=0 / direct=2 / weightb=1 / open_gop=0 / weightp=2 / keyint=250 / keyint_min=23 / scenecut=40 / intra_refresh=0 / rc_lookahead=50 / rc=2pass / mbtree=0 / bitrate=5961 / ratetol=1.0 / qcomp=0.60 / qpmin=0 / qpmax=69 / qpstep=4 / cplxblur=20.0 / qblur=0.5 / vbv_maxrate=14000 / vbv_bufsize=14000 / nal_hrd=none / filler=0 / ip_ratio=1.40 / pb_ratio=1.30 / aq=2:1.00
Language : English
Default : Yes
Forced : No
Color range : Limited
Color primaries : Generic film
Matrix coefficients : YCgCo

Audio #1
ID : 2
Format : AC-3
Format/Info : Audio Coding 3
Mode extension : CM (complete main)
Format settings, Endianness : Big
Codec ID : A_AC3
Duration : 1 h 35 min
Bit rate mode : Constant
Bit rate : 192 kb/s
Channel(s) : 2 channels
Channel positions : Front: L R
Sampling rate : 48.0 kHz
Frame rate : 31.250 FPS (1536 spf)
Compression mode : Lossy
Delay relative to video : 11 s 0 ms
Stream size : 132 MiB (3 wacko
Title : Двухголосый (Рен ТВ)
Language : Russian
Default : Yes
Forced : No

Audio #2
ID : 3
Format : AC-3
Format/Info : Audio Coding 3
Mode extension : CM (complete main)
Format settings, Endianness : Big
Codec ID : A_AC3
Duration : 1 h 35 min
Bit rate mode : Constant
Bit rate : 192 kb/s
Channel(s) : 2 channels
Channel positions : Front: L R
Sampling rate : 48.0 kHz
Frame rate : 31.250 FPS (1536 spf)
Compression mode : Lossy
Delay relative to video : 11 s 0 ms
Stream size : 132 MiB (3 wacko
Title : Гаврилов
Language : Russian
Default : No
Forced : No

Audio #3
ID : 4
Format : AC-3
Format/Info : Audio Coding 3
Mode extension : CM (complete main)
Format settings, Endianness : Big
Codec ID : A_AC3
Duration : 1 h 35 min
Bit rate mode : Constant
Bit rate : 192 kb/s
Channel(s) : 2 channels
Channel positions : Front: L R
Sampling rate : 48.0 kHz
Frame rate : 31.250 FPS (1536 spf)
Compression mode : Lossy
Delay relative to video : 11 s 0 ms
Stream size : 132 MiB (3 wacko
Title : Визгунов
Language : Russian
Default : No
Forced : No

Menu
00:00:00.000 : en:Chapter 1


 





Дополнительная информация:


Исходник: Shootfighter 1992 GER Blu-ray

 





Знаете ли Вы, что...


Более верный перевод оригинального названия — «Сильнейший боец: Бой до смерти».

 




Скриншоты:

pic pic pic pic




Скачал сам, помоги другим! Пиявки полезны только в медицине


Статистика торрента
Раздают: 251 Качают: 59 Размер: 4.37GB Скачали: 1
Имя файла: 41770_-NNMClub.to-Sil.torrent
Похожие торренты
Отзывы пользователей
Добавить отзыв