1.46GB / Некая справедливость / A Certain Justice (2014) HDRip-AVC | P2

Категория: фильмы » Боевики
рейтинг из 5
  • Добавил: zlidny
  • Дата: 19/07/14, 11:42:54
  • Просмотры: 381
  • Отзывы: 0
?????
Название игры:
Год выхода игры:
Жанр игры: Боевики, Драмы

Название: Некая справедливость
Оригинальное название: A Certain Justice
Год выхода: 2014
Жанр: боевик, драма
Режиссер: Джорджо Серафини, Джеймс Койн
В ролях: Кунг Ле, Дольф Лундгрен, Винни Джонс, Бриана Эвиган, Джанни Капальди, Джеймс С. Бёрнс, Роберт ЛаСардо, Джонатан Ковальски, Джейк Джейкобсон, Скотт Шили

О фильме:
Вернувшись домой после службы в Ираке, Джон испытывает посттравматическое стрессовое расстройство. То спокойствие, которого ему удалось достичь, рушится в один день, когда он спасает местную девушку от сутенеров…





Страна: США
Студия: Hollywood Media Bridge, Picture Perfect Corporation, Voltage Pictures
Продолжительность: 01:36:48
Перевод: Профессиональный (двухголосый) [3-A студия]

Файл
Кодек: AVC
Качество: HDRip-AVC
Видео: 768x432, 1770 kbps, 23,976 fps, 0,233 Bits/(Pixel*Frame)
Звук:
AC3, 48 kHz, 2 ch, 192 kbps - русский
AC3, 48 kHz, 2 ch, 192 kbps - english
Субтитры: Нет

Релиз от:

Автор рипа: _Bathory_

 

Скриншоты

 

MI
General
Unique ID : 232469190403494519418054667252850919830 (0xAEE3EFFFA4A504F4B561AB2CB8AE8996)
Complete name : G:RipA.Certain.Justice.P2.2014.HDRip-AVC.by_Bathory.mkv
Format : Matroska
Format version : Version 2
File size : 1.46 GiB
Duration : 1h 36mn
Overall bit rate : 2 155 Kbps
Encoded date : UTC 2014-07-18 22:11:56
Writing application : mkvmerge v7.0.0 ('Where We Going') 32bit built on Jun 9 2014 15:08:34
Writing library : libebml v1.3.0 + libmatroska v1.4.1
DURATION : 01:36:48.000000000
NUMBER_OF_FRAMES : 181500
NUMBER_OF_BYTES : 139392000
_STATISTICS_WRITING_APP : mkvmerge v7.0.0 ('Where We Going') 32bit built on Jun 9 2014 15:08:34
_STATISTICS_WRITING_DATE_UTC : 2014-07-18 22:11:56
_STATISTICS_TAGS : BPS DURATION NUMBER_OF_FRAMES NUMBER_OF_BYTES

Video
ID : 1
Format : AVC
Format/Info : Advanced Video Codec
Format profile : High@L4.1
Format settings, CABAC : Yes
Format settings, ReFrames : 12 frames
Codec ID : V_MPEG4/ISO/AVC
Duration : 1h 36mn
Bit rate : 1 770 Kbps
Width : 768 pixels
Height : 432 pixels
Display aspect ratio : 16:9
Frame rate mode : Constant
Frame rate : 23.976 fps
Color space : YUV
Chroma subsampling : 4:2:0
Bit depth : 8 bits
Scan type : Progressive
Bits/(Pixel*Frame) : 0.223
Stream size : 1.17 GiB (80%)
Writing library : x264 core 142 r2431 ac76440
Encoding settings : cabac=1 / ref=12 / deblock=1:-3:-2 / analyse=0x3:0x113 / me=umh / subme=11 / psy=1 / psy_rd=1.10:0.15 / mixed_ref=1 / me_range=48 / chroma_me=1 / trellis=2 / 8x8dct=1 / cqm=0 / deadzone=21,11 / fast_pskip=0 / chroma_qp_offset=-3 / threads=12 / lookahead_threads=3 / sliced_threads=0 / nr=0 / decimate=1 / interlaced=0 / bluray_compat=0 / constrained_intra=0 / bframes=16 / b_pyramid=2 / b_adapt=2 / b_bias=0 / direct=3 / weightb=1 / open_gop=0 / weightp=2 / keyint=240 / keyint_min=23 / scenecut=40 / intra_refresh=0 / rc_lookahead=60 / rc=2pass / mbtree=1 / bitrate=1770 / ratetol=1.0 / qcomp=0.60 / qpmin=0 / qpmax=69 / qpstep=4 / cplxblur=20.0 / qblur=0.5 / vbv_maxrate=62500 / vbv_bufsize=78125 / nal_hrd=none / filler=0 / ip_ratio=1.40 / aq=1:1.00
Default : Yes
Forced : No

Audio #1
ID : 2
Format : AC-3
Format/Info : Audio Coding 3
Mode extension : CM (complete main)
Format settings, Endianness : Big
Codec ID : A_AC3
Duration : 1h 36mn
Bit rate mode : Constant
Bit rate : 192 Kbps
Channel(s) : 2 channels
Channel positions : Front: L R
Sampling rate : 48.0 KHz
Bit depth : 16 bits
Compression mode : Lossy
Stream size : 133 MiB (9%)
Language : Russian
Default : Yes
Forced : No

Audio #2
ID : 3
Format : AC-3
Format/Info : Audio Coding 3
Mode extension : CM (complete main)
Format settings, Endianness : Big
Codec ID : A_AC3
Duration : 1h 36mn
Bit rate mode : Constant
Bit rate : 192 Kbps
Channel(s) : 2 channels
Channel positions : Front: L R
Sampling rate : 48.0 KHz
Bit depth : 16 bits
Compression mode : Lossy
Stream size : 133 MiB (9%)
Language : English
Default : No
Forced : No

Статистика торрента
Раздают: 91 Качают: 51 Размер: 1.46GB Скачали: 16
Имя файла: 36069_-rutor.org-A.Ce.torrent
Похожие торренты
Отзывы пользователей
Добавить отзыв