7.95GB / Каратель / The Punisher (2004) BDRip 1080p от NNNB

Категория: фильмы » Боевики
рейтинг из 5
  • Добавил: zlidny
  • Дата: 23/08/14, 11:13:43
  • Просмотры: 217
  • Отзывы: 0
?????
Название игры:
Год выхода игры:
Жанр игры: Драмы, Криминал, Триллеры, Боевики

Название: Каратель
Оригинальное название: The Punisher
Год выпуска: 2004
Жанр: Боевик, триллер, драма, криминал, комикс
Выпущено: Lions Gate Films, Marvel Enterprises
Режиссер: Джонатан Хенсли
В ролях: Томас Джейн, Джон Траволта, Уилл Пэттон, Эдди Джемисон, Ребекка Ромин, Бен Фостер, Джон Пинетт, Лора Хэрринг, Джеймс Карпинелло, Марко Ст. Джон

Перевод: Дублированный

Сюжет фильма

Фрэнк Касл - агент ФБР под прикрытием, который после долгих лет службы оперативником должен наконец-то получить кабинетную должность и начать спокойную жизнь со своей женой и детьми. Однако ему предстоит пережить страшное потрясение - во время выполнения последнего спецзадания прямо на его глазах от рук преступника погибает вся его семья. Несмотря на душевную боль, Фрэнк с невероятной решимостью, жестокостью и бесстрашием ищет и карает убийц. Он ведет войну против тех, кто лишил его самого дорогого в жизни. Это - настоящее возмездие...




Файл
Качество: BDRip 1080p (исходник Blu-ray)
Видео: 1920x816, 7 935 Кбит/сек, 23.976 кадр/сек, AVC, x264, High@L4.1, 0.211 Бит/[Пиксели*Кадры], 2pass
Аудио 1: AC3 5.1 48 kHz 640 kbps - Дублированный
Аудио 2: AC3 5.1 48 kHz 640 kbps - English


Чаптеры: нет
Субтитры: Русские (форсированные)
Продолжительность: 02:03:30

 

Автор рипа: Сообщество:



 

Скриншоты
 
MediaInfo


Format : Matroska
Format version : Version 2
File size : 7.95 GiB
Duration : 2h 3mn
Overall bit rate : 9 213 Kbps
Movie name : Karatel'.(2004).BDRip.1080p.[denis100]
Encoded date : UTC 2014-08-23 05:19:58
Writing application : mkvmerge v5.8.0 ('No Sleep / Pillow') built on Sep 2 2012 15:37:04
Writing library : libebml v1.2.3 + libmatroska v1.3.0

Video
ID : 1
Format : AVC
Format/Info : Advanced Video Codec
Format profile : High@L4.1
Format settings, CABAC : Yes
Format settings, ReFrames : 5 frames
Codec ID : V_MPEG4/ISO/AVC
Duration : 2h 3mn
Bit rate : 7 935 Kbps
Width : 1 920 pixels
Height : 816 pixels
Display aspect ratio : 2.35:1
Frame rate mode : Constant
Frame rate : 23.976 fps
Color space : YUV
Chroma subsampling : 4:2:0
Bit depth : 8 bits
Scan type : Progressive
Bits/(Pixel*Frame) : 0.211
Stream size : 6.69 GiB (84%)
Title : Karatel'.(2004).BDRip.1080p.[denis100]
Writing library : x264 core 138 r2358 9e941d1
Encoding settings : cabac=1 / ref=5 / deblock=1:-3:-3 / analyse=0x3:0x133 / me=umh / subme=11 / psy=1 / psy_rd=1.00:0.15 / mixed_ref=1 / me_range=32 / chroma_me=1 / trellis=2 / 8x8dct=1 / cqm=0 / deadzone=21,11 / fast_pskip=0 / chroma_qp_offset=-3 / threads=6 / lookahead_threads=1 / sliced_threads=0 / nr=0 / decimate=1 / interlaced=0 / bluray_compat=0 / constrained_intra=0 / bframes=8 / b_pyramid=2 / b_adapt=2 / b_bias=0 / direct=3 / weightb=1 / open_gop=0 / weightp=2 / keyint=240 / keyint_min=23 / scenecut=40 / intra_refresh=0 / rc=2pass / mbtree=0 / bitrate=7935 / ratetol=1.0 / qcomp=0.60 / qpmin=0 / qpmax=69 / qpstep=4 / cplxblur=20.0 / qblur=0.5 / ip_ratio=1.40 / pb_ratio=1.30 / aq=1:0.90
Language : English
Default : Yes
Forced : No

Audio #1
ID : 2
Format : AC-3
Format/Info : Audio Coding 3
Mode extension : CM (complete main)
Format settings, Endianness : Big
Codec ID : A_AC3
Duration : 2h 3mn
Bit rate mode : Constant
Bit rate : 640 Kbps
Channel(s) : 6 channels
Channel positions : Front: L C R, Side: L R, LFE
Sampling rate : 48.0 KHz
Bit depth : 16 bits
Compression mode : Lossy
Stream size : 565 MiB (7%)
Title : Дублированный
Language : Russian
Default : Yes
Forced : No

Audio #2
ID : 3
Format : AC-3
Format/Info : Audio Coding 3
Mode extension : CM (complete main)
Format settings, Endianness : Big
Codec ID : A_AC3
Duration : 2h 3mn
Bit rate mode : Constant
Bit rate : 640 Kbps
Channel(s) : 6 channels
Channel positions : Front: L C R, Side: L R, LFE
Sampling rate : 48.0 KHz
Bit depth : 16 bits
Compression mode : Lossy
Stream size : 565 MiB (7%)
Title : English
Language : English
Default : No
Forced : No

Text
ID : 4
Format : UTF-8
Codec ID : S_TEXT/UTF8
Codec ID/Info : UTF-8 Plain Text
Title : Russian (Forced)
Language : Russian
Default : Yes
Forced : No


Статистика торрента
Раздают: 184 Качают: 199 Размер: 7.95GB Скачали: 12
Имя файла: 37215_-rutor.org-Kara.torrent
Похожие торренты
Отзывы пользователей
Добавить отзыв