7.75GB / Геракл: Начало легенды / The Legend of Hercules (2014) BDRip 1080p от NNNB

Категория: фильмы » Боевики
рейтинг из 5
  • Добавил: zlidny
  • Дата: 23/09/14, 22:23:54
  • Просмотры: 210
  • Отзывы: 0
?????
Название игры:
Год выхода игры:
Жанр игры: Фентези, Боевики

Название: Геракл: Начало легенды
Оригинальное название: The Legend of Hercules
Год выпуска: 2014
Жанр: Фэнтези, боевик
Выпущено: США, Болгария, Millennium Films
Режиссер: Ренни Харлин
В ролях: Келлан Латс, Гайя Вайсс, Скотт Эдкинс, Роксанна МакКи, Лайам Гэрриган, Лиам МакИнтайр, Раде Шербеджия, Джонатон Шек, Люк Ньюберри, Кеннет Крэнэм

О фильме: 1200 г. до н. э. Древняя Греция. Прекрасная царица Алкмена попала под чары грозного бога Олимпа — Зевса и родила ему сына Геракла. При рождении ему было предсказано стать величайшим воином, который будет властвовать над народами и принесет мир и процветание своей стране. Но пока Геракл ничего не знает о своем предназначении. Он вырос прекрасным и сильным юношей. Он мечтает о любви принцессы Крита, Гебы, которая обещана в жены его брату. Когда Геракл узнает о своей великой миссии, он должен выбрать: сбежать со своей любовью или исполнить свое предназначение. Ему предстоит сразиться с кентавром, победить гигантов, выросших из зубов дракона, перехитрить богинь Судьбы, спасти свою возлюбленную Гебу и выйти на бой со своим злейшим врагом — сыном бога войны Ареса.




Файл
Качество: BDRip 1080p (исходник Blu-ray)
Видео: 1920x804, 10624 Кбит/сек, 24.000 кадр/сек, AVC, x264, High@L4.1, 0.287 Бит/[Пиксели*Кадры], 2pass
Аудио 1: AC3 5.1 48 kHz 640 kbps - Дублированный

Чаптеры: есть
Продолжительность: 01:38:39

 

Автор рипа: Сообщество:



 

Скриншоты
 
MediaInfo

Format : Matroska
Format version : Version 2
File size : 7.75 GiB
Duration : 1h 38mn
Overall bit rate : 11.3 Mbps
Movie name : Gerakl: Nachalo legendy.(2014).BDRip.1080p.[denis100]
Encoded date : UTC 2014-09-23 16:23:57
Writing application : mkvmerge v5.8.0 ('No Sleep / Pillow') built on Sep 2 2012 15:37:04
Writing library : libebml v1.2.3 + libmatroska v1.3.0

Video
ID : 1
Format : AVC
Format/Info : Advanced Video Codec
Format profile : High@L4.1
Format settings, CABAC : Yes
Format settings, ReFrames : 5 frames
Codec ID : V_MPEG4/ISO/AVC
Duration : 1h 38mn
Bit rate : 10.6 Mbps
Width : 1 920 pixels
Height : 804 pixels
Display aspect ratio : 2.40:1
Frame rate mode : Constant
Frame rate : 24.000 fps
Color space : YUV
Chroma subsampling : 4:2:0
Bit depth : 8 bits
Scan type : Progressive
Bits/(Pixel*Frame) : 0.287
Stream size : 7.16 GiB (92%)
Title : Gerakl: Nachalo legendy.(2014).BDRip.1080p.[denis100]
Writing library : x264 core 142 r2453 ea0ca51
Encoding settings : cabac=1 / ref=5 / deblock=1:-3:-3 / analyse=0x3:0x133 / me=umh / subme=11 / psy=1 / psy_rd=1.00:0.10 / mixed_ref=1 / me_range=32 / chroma_me=1 / trellis=2 / 8x8dct=1 / cqm=0 / deadzone=21,11 / fast_pskip=0 / chroma_qp_offset=-3 / threads=6 / lookahead_threads=1 / sliced_threads=0 / nr=0 / decimate=1 / interlaced=0 / bluray_compat=0 / constrained_intra=0 / bframes=6 / b_pyramid=2 / b_adapt=2 / b_bias=0 / direct=3 / weightb=1 / open_gop=0 / weightp=2 / keyint=250 / keyint_min=24 / scenecut=40 / intra_refresh=0 / rc=2pass / mbtree=0 / bitrate=10624 / ratetol=1.0 / qcomp=0.60 / qpmin=0 / qpmax=69 / qpstep=4 / cplxblur=20.0 / qblur=0.5 / ip_ratio=1.40 / pb_ratio=1.30 / aq=1:0.90
Language : English
Default : Yes
Forced : No

Audio
ID : 2
Format : AC-3
Format/Info : Audio Coding 3
Mode extension : CM (complete main)
Format settings, Endianness : Big
Codec ID : A_AC3
Duration : 1h 38mn
Bit rate mode : Constant
Bit rate : 640 Kbps
Channel(s) : 6 channels
Channel positions : Front: L C R, Side: L R, LFE
Sampling rate : 48.0 KHz
Bit depth : 16 bits
Compression mode : Lossy
Stream size : 451 MiB (6%)
Title : Дублированный
Language : Russian
Default : Yes
Forced : No

Menu
00:00:00.000 : en:Chapter 01
00:00:04.000 : en:Chapter 02
00:10:37.416 : en:Chapter 03
00:26:20.625 : en:Chapter 04
00:35:03.750 : en:Chapter 05
00:47:00.333 : en:Chapter 06
01:00:15.500 : en:Chapter 07
01:11:12.541 : en:Chapter 08
01:23:34.416 : en:Chapter 09

 
x264


x264 [info]: frame I:1723 Avg QP:13.25 size:232039
x264 [info]: frame P:41576 Avg QP:15.63 size: 89598
x264 [info]: frame B:98612 Avg QP:17.44 size: 37777


Статистика торрента
Раздают: 133 Качают: 157 Размер: 7.75GB Скачали: 15
Имя файла: 37845_-rutor.org-Gera.torrent
Похожие торренты
Отзывы пользователей
Добавить отзыв