3.08GB / Пятый элемент / The Fifth Element (Люк Бессон) [1997, фантастика, боевик, триллер, комедия, BDRip-AVC]

Категория: фильмы » Боевики
рейтинг из 5
  • Добавил: zlidny
  • Дата: 18/07/14, 18:11:02
  • Просмотры: 155
  • Отзывы: 0
?????
Название игры:
Год выхода игры:
Жанр игры: Комедии, Триллеры, Фантастика, Боевики

Перевод: Профессиональный (полное дублирование), субтитры: отсутствуют
Формат: BDRip-AVC, MKV, H.264, AC3
Страна: Франция
Режиссер: Люк Бессон
Жанр: фантастика, боевик, триллер, комедия
Продолжительность: 02:06:30
Год выпуска: 1997
В ролях: Брюс Уиллис, Милла Йовович, Гари Олдман, Иэн Холм, Крис Такер, Люк Перри, Брайон Джеймс, Томми Листер, Ли Эванс, Чарли Крид-Майлз, Трики, Джон Невилл, Джон Блузал, Матьё Кассовиц, Кристофер Фэйрбэнк, Ким Чан, Ричард Лиф, Джули Т. Уоллес, Эл Мэтьюз, Майвенн Ле Беско, Джон Беннет, Иван Хенг, Сонита Генри, Тим МакМуллан, Хон Пинг Тэнг, Джордж Кхан, Джон Хьюз
Описание:
Каждые пять тысяч лет открываются двери между измерениями и темные силы стремятся нарушить существующую гармонию. Каждые пять тысяч лет Вселенной нужен герой, способный противостоять этому злу. XXIII век. Нью-йоркский таксист Корбен Даллас должен решить глобальную задачу — спасение всего рода человеческого. Зло в виде раскаленной массы, наделенной интеллектом, надвигается на Землю. Победить его можно, только лишь собрав воедино четыре элемента (они же стихии — земля, вода, воздух и огонь) и добавив к ним загадочный пятый элемент.



Видео: 1280x544(2.35:1) 23.976 fps, MPEG4 AVC (x264) High@L4.1, 3028 Kbps avg, 0.181 Bits/Pixel
Аудио: 48 kHz, AC3 Dolby Digital, 3/2 (L,C,R,l,r) + LFE ch, 384 kbps avg


 

Награды и номинации
Оскар, 1998 год
Номинации (1):
• Лучший монтаж звука
Премия канала «MTV», 1998 год
Номинации (1):
• Лучшая драка
Британская академия, 1998 год
Победитель (1):
• Лучшие визуальные эффекты
Сезар, 1998 год
Победитель (3):
• Лучший режиссер (Люк Бессон)
• Лучшая работа оператора
• Лучшие декорации
Номинации (5):
• Лучший фильм
• Лучшие костюмы
• Лучший звук
• Лучший монтаж
• Лучший саундтрек
Сатурн, 1998 год
Номинации (4):
• Лучший научно-фантастический фильм
• Лучшая актриса второго плана (Милла Йовович)
• Лучшие костюмы
• Лучшие спецэффекты
Европейская киноакадемия, 1997 год
Номинации (1):
• Лучший фильм


 

МедиаИнфо
General
Complete name : D:\Пятый элемент\фильм\The Fifth Element.1997.BDRip.MKV.x264.DHT-Movies.mkv
Format : Matroska
File size : 3.08 GiB
Duration : 2h 6mn
Overall bit rate : 3 481 Kbps
Encoded date : UTC 2010-12-29 16:11:33
Writing application : mkvmerge v4.0.0 ('The Stars were mine') збірка від Jun 6 2010 16:18:42
Writing library : libebml v1.0.0 + libmatroska v1.0.0

Video
ID : 1
Format : AVC
Format/Info : Advanced Video Codec
Format profile : High@L4.1
Format settings, CABAC : Yes
Format settings, ReFrames : 10 frames
Codec ID : V_MPEG4/ISO/AVC
Duration : 2h 6mn
Bit rate : 3 028 Kbps
Width : 1 280 pixels
Height : 544 pixels
Display aspect ratio : 2.35:1
Frame rate : 23.976 fps
Standard : NTSC
Color space : YUV
Chroma subsampling : 4:2:0
Bit depth : 8 bits
Scan type : Progressive
Bits/(Pixel*Frame) : 0.181
Stream size : 2.68 GiB (87%)
Language : English
Color primaries : BT.709-5, BT.1361, IEC 61966-2-4, SMPTE RP177
Transfer characteristics : BT.709-5, BT.1361
Matrix coefficients : BT.709-5, BT.1361, IEC 61966-2-4 709, SMPTE RP177

Audio
ID : 2
Format : AC-3
Format/Info : Audio Coding 3
Mode extension : CM (complete main)
Codec ID : A_AC3
Duration : 2h 6mn
Bit rate mode : Constant
Bit rate : 384 Kbps
Channel(s) : 6 channels
Channel positions : Front: L C R, Side: L R, LFE
Sampling rate : 48.0 KHz
Bit depth : 16 bits
Stream size : 347 MiB (11%)
Title : Дубляж
Language : Russian


 


Статистика торрента
Раздают: 210 Качают: 108 Размер: 3.08GB Скачали: 15
Имя файла: 35951_Pyatii_element..torrent
Похожие торренты
Отзывы пользователей
Добавить отзыв