2.9GB / Стиратель / Eraser (Чак Рассел / Chuck Russell) [1996, боевик, триллер, драма, детектив, BDRip-AVC]

Категория: фильмы » Боевики
рейтинг из 5
  • Добавил: zlidny
  • Дата: 24/08/14, 17:24:59
  • Просмотры: 248
  • Отзывы: 0
?????
Название игры:
Год выхода игры:
Жанр игры: Драмы, Детективы, Триллеры, Боевики

Перевод: Профессиональный [полное дублирование] [Лицензия]
Субтитры: русские, английские
Формат: BDRip-AVC, MKV, H.264, AC3
Страна: США
Режиссер: Чак Рассел / Chuck Russell
Жанр: боевик, триллер, драма, детектив
Продолжительность: 01:54:31
Год выпуска: 1996

В ролях:
Арнольд Шварценеггер, Джеймс Каан, Ванесса Уильямс, Джеймс Коберн, Роберт Пасторелли, Джеймс Кромуэлл, Дэнни Нуччи, Энди Романо, Ник Чинланд, Майкл Пападжон

Описание:
Джон Крюгер «стирает» из прошлого и настоящего все следы людей, находящихся под охраной Программы Защиты Свидетелей. Ему надо защищать женщину — ее играет Ванесса Уильямс, — которая готова разоблачить сделку по продаже преступникам нового супероружия. Крюгер должен спасти и ее и себя, и начинается марафон не на жизнь, а на смерть, где ему предстоит прыгать с самолета вслед за парашютом, сражаться с аллигаторами, преодолевать суперсовременные системы безопасности и противостоять киллерам с новейшим оружием.



Видео: 1280 x 534 (2.40:1) 23.976 fps, AVC MPEG-4 (x264), High@L4.1 ~3172 Kbps avg, 0.194 bit/pixel
Аудио: Русский: 48 kHz, AC3 Dolby Digital, 3/2 (L,C,R,l,r) + LFE ch, ~384 kbps
 

MediaInfo

General
Unique ID : 35551719230810346481640861827487320035 (0x1ABF0316A21EF4CEEE4276A3CAA147E3)
Complete name : E:\Фильмы\Стиратель.1996.BDRip 720p.DUB.[tfile.ru].mkv
Format : Matroska
File size : 2.90 GiB
Duration : 1h 54mn
Overall bit rate : 3 628 Kbps
Movie name : Release by Leonardo for Scarabey.org
Encoded date : UTC 2014-08-11 14:35:41
Writing application : mkvmerge v5.0.1 ('Es ist Sommer') built on Oct 23 2011 00:46:40
Writing library : libebml v1.2.2 + libmatroska v1.3.0
Cover : Yes

Video
ID : 1
Format : AVC
Format/Info : Advanced Video Codec
Format profile : High@L4.1
Format settings, CABAC : Yes
Format settings, ReFrames : 8 frames
Codec ID : V_MPEG4/ISO/AVC
Duration : 1h 54mn
Bit rate : 3 172 Kbps
Width : 1 280 pixels
Height : 534 pixels
Display aspect ratio : 2.35:1
Frame rate : 23.976 fps
Color space : YUV
Chroma subsampling : 4:2:0
Bit depth : 8 bits
Scan type : Progressive
Bits/(Pixel*Frame) : 0.194
Stream size : 2.54 GiB (87%)
Writing library : x264 core 125 r2208 d9d2288
Encoding settings : cabac=1 / ref=8 / deblock=1:-3:-3 / analyse=0x3:0x133 / me=umh / subme=11 / psy=1 / psy_rd=1.00:0.00 / mixed_ref=1 / me_range=32 / chroma_me=1 / trellis=2 / 8x8dct=1 / cqm=0 / deadzone=21,11 / fast_pskip=0 / chroma_qp_offset=-2 / threads=12 / lookahead_threads=2 / sliced_threads=0 / nr=0 / decimate=1 / interlaced=0 / bluray_compat=0 / constrained_intra=0 / bframes=8 / b_pyramid=2 / b_adapt=2 / b_bias=0 / direct=1 / weightb=1 / open_gop=0 / weightp=2 / keyint=250 / keyint_min=23 / scenecut=40 / intra_refresh=0 / rc=crf / mbtree=0 / crf=19.0 / qcomp=0.60 / qpmin=0 / qpmax=69 / qpstep=4 / ip_ratio=1.10 / pb_ratio=1.10 / aq=1:1.00
Language : English

Audio
ID : 2
Format : AC-3
Format/Info : Audio Coding 3
Mode extension : CM (complete main)
Codec ID : A_AC3
Duration : 1h 54mn
Bit rate mode : Constant
Bit rate : 384 Kbps
Channel(s) : 6 channels
Channel positions : Front: L C R, Side: L R, LFE
Sampling rate : 48.0 KHz
Bit depth : 16 bits
Compression mode : Lossy
Stream size : 315 MiB (11%)
Language : Russian

Text #1
ID : 3
Format : UTF-8
Codec ID : S_TEXT/UTF8
Codec ID/Info : UTF-8 Plain Text
Language : Russian

Text #2
ID : 4
Format : UTF-8
Codec ID : S_TEXT/UTF8
Codec ID/Info : UTF-8 Plain Text
Language : English

Menu
00:00:00.000 : en:00:00:00.000
00:02:42.412 : en:00:02:42.412
00:04:20.260 : en:00:04:20.260
00:08:33.221 : en:00:08:33.221
00:11:30.440 : en:00:11:30.440
00:12:28.831 : en:00:12:28.831
00:17:55.741 : en:00:17:55.741
00:20:39.447 : en:00:20:39.447
00:23:16.687 : en:00:23:16.687
00:24:24.129 : en:00:24:24.129
00:30:19.317 : en:00:30:19.317
00:31:32.140 : en:00:31:32.140
00:33:34.679 : en:00:33:34.679
00:34:53.174 : en:00:34:53.174
00:38:50.828 : en:00:38:50.828
00:43:26.270 : en:00:43:26.270
00:46:46.429 : en:00:46:46.429
00:48:19.146 : en:00:48:19.146
00:51:01.558 : en:00:51:01.558
00:53:34.086 : en:00:53:34.086
00:55:16.855 : en:00:55:16.855
00:57:15.265 : en:00:57:15.265
00:58:17.119 : en:00:58:17.119
01:00:56.820 : en:01:00:56.820
01:01:37.277 : en:01:01:37.277
01:03:38.148 : en:01:03:38.148
01:04:39.626 : en:01:04:39.626
01:06:06.671 : en:01:06:06.671
01:09:13.566 : en:01:09:13.566
01:11:58.648 : en:01:11:58.648
01:13:19.061 : en:01:13:19.061
01:16:30.377 : en:01:16:30.377
01:20:20.691 : en:01:20:20.691
01:23:31.924 : en:01:23:31.924
01:26:06.078 : en:01:26:06.078
01:27:52.642 : en:01:27:52.642
01:29:44.421 : en:01:29:44.421
01:33:09.793 : en:01:33:09.793
01:34:50.435 : en:01:34:50.435
01:37:18.958 : en:01:37:18.958
01:39:22.039 : en:01:39:22.039
01:42:31.645 : en:01:42:31.645
01:44:54.288 : en:01:44:54.288
01:49:29.897 : en:01:49:29.897
01:54:31.114 : en:01:54:31.114

Статистика торрента
Раздают: 269 Качают: 183 Размер: 2.9GB Скачали: 17
Имя файла: 37317_Stiratel-1996.B.torrent
Похожие торренты
Отзывы пользователей
Добавить отзыв