2.8GB / РобоКоп / RoboCop (Жозе Падилья) [2014, фантастика, боевик, криминал, HDRip-AVC]

Категория: фильмы » Боевики
рейтинг из 5
  • Добавил: zlidny
  • Дата: 30/09/14, 13:29:19
  • Просмотры: 232
  • Отзывы: 0
?????
Название игры:
Год выхода игры:
Жанр игры: Криминал, Фантастика, Боевики

Перевод: Профессиональный (полное дублирование) Лицензия, cубтитры: отсутствуют
Формат: HDRip-AVC, MKV, H.264, AC3
Страна: США
Режиссер: Жозе Падилья
Жанр: фантастика, боевик, криминал
Продолжительность: 01:57:29
Год выпуска: 2014

В ролях: Юэль Киннаман, Гари Олдман, Майкл Китон, Эбби Корниш, Джей Барушель, Сэмюэл Л. Джексон, Айми Гарсиа, Дженнифер Или, Джеки Эрл Хейли, Майкл К. Уильямс

Описание: 2028 год. Международный конгломерат ОмниКорп лидирует в производстве робототехники. Благодаря разработкам компании Америка успешно побеждает в войнах по всему миру. Но теперь пришло время применить технологию на американской земле. Алекс Мерфи — любящий муж, отец и отличный полицейский, оберегающий порядок в Детройте, получает на службе смертельные ранения. Специалисты ОмниКорпа, используя новейшие разработки, сохраняют ему жизнь. Алекс возвращается на службу в родной город не только с новыми сверхспособностями, но и с проблемами, с которыми не сталкивался ни один живой человек.



Видео: 1280 x 528 (2.40:1), 23.976 fps, AVC (х264) High@L4.1, ~ 2523 Kbps, 0.156 bit/pixel
Аудио #1: Русский 48 kHz, AC3 Dolby Digital, 3/2 (L,C,R,l,r) + LFE ch, ~448 kbps avg [Профессиональный (полное дублирование)]
Аудио #2: Английский 48 kHz, AC3 Dolby Digital, 3/2 (L,C,R,l,r) + LFE ch, ~448 kbps avg [Оригинал]


Рип: jeenart

 

Интересные факты
 
  • В 2008 году Даррен Аронофски объявил о ремейке с Дэвидом Селфом в качестве сценариста и бюджетом в 100 миллионов долларов, премьера была запланирована на 2010 год.
     
  • Проект неоднократно откладывали. В начале 2010 года Даррен Аронофски выступал против идеи Metro-Goldwyn-Mayer снимать фильм в формате 3D. В том же году MGM переживала серьёзный финансовый кризис, и проект был заброшен. Впоследствии Даррен Аронофски заявлял о желании продолжить работу над картиной, в случае если студия MGM решит свои финансовые проблемы.
     
  • В 2012 году проект возродился под руководством бразильского режиссёра Жозе Падильи.
     
  • Съёмки начались 1 сентября 2012 года в Канаде на студии Pinewood Toronto Studios и закончились 23 декабря 2012 года.
     
  • Для продвижения фильма Metro-Goldwyn-Mayer Studios Inc. и Sony Pictures в 2012 году создали псевдоофициальный сайт несуществующей OmniCorp, на котором был размещён рекламный ролик OmniCorp, записи вымышленных теленовостей о беспорядках в американских городах, описание двух видов её продукции (беспилотного самолёта и робота ED-209) и анонс киборга RC-2000. Также был создан псевдоофициальный профиль в Facebook, с тем же роликом и другими фотографиями робота ED-209 (в том числе его старой модели вместе с создателем) и RC-2000.
     
Отчёт MediaInfo
General
Unique ID : 186281852892053794870131714118886903984 (0x8C249471942A0C46A9AB602C234050B0)
Complete name : F:\RoboCop.1987-1993.HDRip-AVC.H.264.2,80 Gb.RG.Films\RoboCop.4.2014.HDRip-AVC.H.264.2,80 Gb.RG.Films.mkv
Format : Matroska
Format version : Version 2
File size : 2.80 GiB
Duration : 1h 57mn
Overall bit rate : 3 416 Kbps
Encoded date : UTC 2014-09-28 15:58:46
Writing application : mkvmerge v5.8.0 ('No Sleep / Pillow') built on Sep 2 2012 15:37:04
Writing library : libebml v1.2.3 + libmatroska v1.3.0

Video
ID : 1
Format : AVC
Format/Info : Advanced Video Codec
Format profile : High@L4.1
Format settings, CABAC : Yes
Format settings, ReFrames : 8 frames
Muxing mode : Header stripping
Codec ID : V_MPEG4/ISO/AVC
Duration : 1h 57mn
Bit rate : 2 523 Kbps
Width : 1 280 pixels
Height : 528 pixels
Display aspect ratio : 2.40:1
Frame rate mode : Constant
Frame rate : 23.976 fps
Color space : YUV
Chroma subsampling : 4:2:0
Bit depth : 8 bits
Scan type : Progressive
Bits/(Pixel*Frame) : 0.156
Stream size : 2.01 GiB (72%)
Writing library : x264 core 125 r2208 d9d2288
Encoding settings : cabac=1 / ref=8 / deblock=1:-1:-1 / analyse=0x3:0x133 / me=umh / subme=11 / psy=1 / psy_rd=1.00:0.10 / mixed_ref=1 / me_range=24 / chroma_me=1 / trellis=2 / 8x8dct=1 / cqm=0 / deadzone=21,11 / fast_pskip=0 / chroma_qp_offset=-3 / threads=12 / lookahead_threads=2 / sliced_threads=0 / nr=0 / decimate=1 / interlaced=0 / bluray_compat=0 / constrained_intra=0 / bframes=3 / b_pyramid=2 / b_adapt=2 / b_bias=0 / direct=3 / weightb=1 / open_gop=0 / weightp=2 / keyint=250 / keyint_min=23 / scenecut=40 / intra_refresh=0 / rc_lookahead=50 / rc=2pass / mbtree=1 / bitrate=2523 / ratetol=1.0 / qcomp=0.60 / qpmin=0 / qpmax=69 / qpstep=4 / cplxblur=20.0 / qblur=0.5 / ip_ratio=1.40 / aq=1:1.00
Default : Yes
Forced : No

Audio #1
ID : 2
Format : AC-3
Format/Info : Audio Coding 3
Mode extension : CM (complete main)
Format settings, Endianness : Big
Muxing mode : Header stripping
Codec ID : A_AC3
Duration : 1h 57mn
Bit rate mode : Constant
Bit rate : 448 Kbps
Channel(s) : 6 channels
Channel positions : Front: L C R, Side: L R, LFE
Sampling rate : 48.0 KHz
Bit depth : 16 bits
Compression mode : Lossy
Stream size : 376 MiB (13%)
Default : Yes
Forced : No

Audio #2
ID : 3
Format : AC-3
Format/Info : Audio Coding 3
Mode extension : CM (complete main)
Format settings, Endianness : Big
Muxing mode : Header stripping
Codec ID : A_AC3
Duration : 1h 57mn
Bit rate mode : Constant
Bit rate : 448 Kbps
Channel(s) : 6 channels
Channel positions : Front: L C R, Side: L R, LFE
Sampling rate : 48.0 KHz
Bit depth : 16 bits
Compression mode : Lossy
Stream size : 376 MiB (13%)
Default : No
Forced : No

Статистика торрента
Раздают: 378 Качают: 37 Размер: 2.8GB Скачали: 12
Имя файла: 38017_RoboCop.4.2014..torrent
Похожие торренты
Отзывы пользователей
Добавить отзыв