2.76GB / Мужские каникулы (1-4 серии из 4) (Леонид Белозорович) [2014, боевик, криминал, драма, WEB-DLRip-AVC]

Категория: фильмы » Боевики
рейтинг из 5
  • Добавил: zlidny
  • Дата: 05/10/14, 15:09:43
  • Просмотры: 385
  • Отзывы: 0
?????
Название игры:
Год выхода игры:
Жанр игры: Драмы, Криминал, Боевики

Формат: WEB-DLRip, MKV, AVC, AC3
Режиссер: Леонид Белозорович
Жанр: боевик, криминал, драма
Продолжительность: 4 x ~ 00:50:00
Год выпуска: 2014

В ролях: Алексей Кравченко, Александр Дзюба, Кирилл Кяро, Александр Шаляпин, Екатерина Маликова

Описание: Молодая красавица Анна Попова готова пойти на все, чтобы прибрать к рукам состояние и бизнес своего мужа – успешного столичного предпринимателя Юрия. Она преподносит супругу, любителю поохотиться и порыбачить, щедрый подарок – путевку на Дальний Восток для экстремального отдыха под названием «Мужские каникулы». План Анны прост: вместе с мужем на «каникулы» поедет ее любовник и его лучший друг Сергей, который должен будет найти возможность убить Юрия, представив смерть товарища как несчастный случай. Третьим в путешествие отправляется их общий друг Кирилл, проигравший крупную сумму чужих денег и вынужденный скрываться. Прибывших на место охоты друзей снабдят оружием и всем необходимым для выживания в тайге, а потом вертолетом забросят в дикую природу. Их ждут охота, рыбная ловля, промывка золота старательским способом и… множество опасностей, проверок на прочность. Им предстоит узнать, какова она — цена настоящей мужской дружбы?


Видео: 1024х576 (16:9), 25 fps, AVC MPEG-4 (x264), High@L4.1 ~ 2000 kbps avg, 0.136 bit/pixel
Аудио: 48 kHz, AC3, 2 ch, ~ 192 kbps

MI
General
Unique ID : 170227375667648369917235809567106091018 (0x8010999A99EBBCABA190641B87D3480A)
Complete name : C:\Muzhskie.kanikuly.2014.WEB-DLRip.(AVC).MediaClub\Muzhskie.kanikuly.(04.seriya.iz.04).2014.WEB-DLRip.(AVC).MediaClub.mkv
Format : Matroska
Format version : Version 2
File size : 693 MiB
Duration : 44mn 24s
Overall bit rate : 2 184 Kbps
Movie name : Muzhskie.kanikuly.(04.seriya.iz.04).2014.WEB-DLRip.(AVC).MediaClub
Encoded date : UTC 2014-10-04 07:00:14
Writing application : mkvmerge v5.8.0 ('No Sleep / Pillow') built on Sep 2 2012 15:37:04
Writing library : libebml v1.2.3 + libmatroska v1.3.0

Video
ID : 1
Format : AVC
Format/Info : Advanced Video Codec
Format profile : Main@L4.1
Format settings, CABAC : Yes
Format settings, ReFrames : 2 frames
Codec ID : V_MPEG4/ISO/AVC
Duration : 44mn 24s
Bit rate mode : Constant
Bit rate : 2 000 Kbps
Width : 1 024 pixels
Height : 576 pixels
Display aspect ratio : 16:9
Frame rate : 25.000 fps
Color space : YUV
Chroma subsampling : 4:2:0
Bit depth : 8 bits
Scan type : Progressive
Bits/(Pixel*Frame) : 0.136
Stream size : 619 MiB (89%)

Audio
ID : 2
Format : AC-3
Format/Info : Audio Coding 3
Mode extension : CM (complete main)
Codec ID : A_AC3
Duration : 44mn 24s
Bit rate mode : Constant
Bit rate : 192 Kbps
Channel(s) : 2 channels
Channel positions : Front: L R
Sampling rate : 48.0 KHz
Bit depth : 16 bits
Compression mode : Lossy
Stream size : 61.0 MiB (9%)
Language : Russian
скриншоты







Статистика торрента
Раздают: 314 Качают: 13 Размер: 2.76GB Скачали: 26
Имя файла: 38207_Mujskie_kanikul.torrent
Похожие торренты
Отзывы пользователей
Добавить отзыв