2.73GB / Стрелок 2. Право на смерть (1-4 серии из 4) (Аршо Арутюнян) [2014, боевик, DVDRip]

Категория: фильмы » Боевики
рейтинг из 5
  • Добавил: zlidny
  • Дата: 14/09/14, 17:10:24
  • Просмотры: 256
  • Отзывы: 0
?????
Название игры:
Год выхода игры:
Жанр игры: Боевики

Формат: DVDRip, AVI, XviD, AC3
Режиссер: Аршо Арутюнян
Жанр: боевик
Продолжительность: 2 х ~ 01:45:00
Год выпуска: 2014
В ролях: Евгений Березовский, Александр Носик, Станислав Эрклиевский, Дмитрий Клепацкий, Юлия Борисова (III), Сергей Холмогоров, Сос Джанибекян, Давид Кацарава, Арам Караханян, Сергей Апрельский, Виктор Фалалеев
Описание:
События разворачиваются в наши дни в одном из среднеазиатских государств. Брата Мадины, вступившегося за сестру, убивают преследующие девушку бандиты. Отцу Мадины Абдулу отказывает в помощи давний друг. Убитый горем мужчина вынужден искать поддержки на стороне, так как все вокруг или запуганы, или подкуплены бандой головорезов. Абдул приезжает в Москву, где знакомится с бывшим сотрудником спецслужб Андреем Макаровым. Андрей соглашается помочь Абдулу. Спецслужбы оказывают Макарову негласное содействие. Помогают Андрею и его товарищам и односельчане Абдула...



Видео: 720x304 (2.35:1), 25 fps, XviD MPEG-4 ~1949 kbps avg, 0.356 bit/pixel
Аудио: 48 kHz, АС3, 2 ch, Front: L R ~192.00 kbps avg
Тех. данные файлов идентичны.
 

MI
Общее
Полное имя : C:\Users\Admin\Downloads\Strelok.2.2014.O.DVRip\Strelok.2.01.02.2014.O.DVRip.avi
Формат : AVI
Формат/Информация : Audio Video Interleave
Размер файла : 1,36 Гбайт
Продолжительность : 1 ч. 27 м.
Общий поток : 2239 Кбит/сек
Программа кодирования : VirtualDubMod 1.5.10.2 (build 2540/release)
Библиотека кодирования : VirtualDubMod build 2540/release

Видео
Идентификатор : 0
Формат : MPEG-4 Visual
Профиль формата : Advanced Simple@L5
Параметр BVOP формата : 2
Параметр QPel формата : Нет
Параметр GMC формата : Без точки перехода
Параметр матрицы формата : Default (MPEG)
Идентификатор кодека : XVID
Идентификатор кодека/Подсказка : XviD
Продолжительность : 1 ч. 27 м.
Битрейт : 1949 Кбит/сек
Ширина : 720 пикселей
Высота : 304 пикселя
Соотношение сторон : 2,35:1
Частота кадров : 25,000 кадров/сек
Цветовое пространство : YUV
Субдискретизация насыщенности : 4:2:0
Битовая глубина : 8 бит
Тип развёртки : Прогрессивная
Метод сжатия : С потерями
Бит/(Пиксели*Кадры) : 0.356
Размер потока : 1,19 Гбайт (87%)
Библиотека кодирования : XviD 1.2.1 (UTC 2008-12-04)

Аудио
Идентификатор : 1
Формат : AC-3
Формат/Информация : Audio Coding 3
Расширение режима : CM (complete main)
Параметр Endianness формата : Big
Идентификатор кодека : 2000
Продолжительность : 1 ч. 27 м.
Вид битрейта : Постоянный
Битрейт : 192 Кбит/сек
Каналы : 2 канала
Расположение каналов : Front: L R
Частота : 48,0 КГц
Битовая глубина : 16 бит
Метод сжатия : С потерями
Размер потока : 120 Мбайт (9%)
Выравнивание : Разделение по промежуткам

скриншоты





Статистика торрента
Раздают: 318 Качают: 9 Размер: 2.73GB Скачали: 26
Имя файла: 37696_strelok-tfile.r.torrent
Похожие торренты
Отзывы пользователей
Добавить отзыв