2.32GB / Раскаленный периметр (1-4 серии из 4) (Игорь Драка) [2014, боевик, криминал, SATRip]

Категория: фильмы » Боевики
рейтинг из 5
  • Добавил: zlidny
  • Дата: 01/11/14, 14:07:20
  • Просмотры: 356
  • Отзывы: 0
?????
Название игры:
Год выхода игры:
Жанр игры: Криминал, Боевики

Формат: SATRip, AVI, XviD, MP3
Режиссер: Игорь Драка
Жанр: боевик, криминал
Продолжительность: 4 x ~ 00:45:00
Год выпуска: 2014
В ролях: Сергей Горобченко, Никита Волков, Оксана Скакун, Юрий Николаенко, Анатолий Бобер, Анастасия Спектор, Денис Старков, Алексей Суренский, Владимир Чернышов, Константин Шелестун
Описание:
Десантники Андрей и Игорь сразу после демобилизации отправляются отдыхать в небольшой приморский городок, в котором живет родная тетя Игоря. От нее друзья узнают, что на пляжах города регулярно исчезают молодые девушки. Полиция ведет поиски, но до последнего времени тщетно. Вскоре стражам порядка «улыбается удача»: они задерживают Андрея с Игорем, с которыми видели пропавших накануне девушек. Майор Никольский, который руководит расследованием, быстро понимает, что десантники не имеют к похищениям никакого отношения. По скудной оперативной информации известно только то, что к преступлениям причастны двое высоких мускулистых парней. На следующий день Игорь видит, как двое крепких молодых людей знакомятся на пляже с девушками. Андрей не придает этому значения и идет купаться, а когда выходит из воды, обнаруживает Игоря на песке без сознания. В тяжелом состоянии его отвозят в местную больницу, где он впадает в кому. Андрей разыскивает Никольского и рассказывает ему о парнях с пляжа. Майор отправляет в больницу экспертов, которые выясняют, что пострадавшему сделали укол сильнодействующего препарата. Чтобы найти и наказать обидчиков друга и похитителей девушек, Андрей просит Никольского разрешить ему участвовать в расследовании…



Видео: 720x448 (1.61:1), 25 fps, XviD build 47 ~1800 kbps avg, 0.223 bit/pixel
Аудио: 48 kHz, MPEG Layer 3, 2 ch, ~128.00 kbps avg
 

MI
Общее
Полное имя : C:\Users\Admin\Downloads\Раскаленный периметр\Raskalennyi.perimetr.01.SATRip.avi
Формат : AVI
Формат/Информация : Audio Video Interleave
Размер файла : 603 Мбайт
Продолжительность : 43 м.
Общий поток : 1938 Кбит/сек
Библиотека кодирования : VirtualDub build 32817/release

Видео
Идентификатор : 0
Формат : MPEG-4 Visual
Профиль формата : Advanced Simple@L5
Параметр BVOP формата : 2
Параметр QPel формата : Нет
Параметр GMC формата : Без точки перехода
Параметр матрицы формата : Default (MPEG)
Идентификатор кодека : XVID
Идентификатор кодека/Подсказка : XviD
Продолжительность : 43 м.
Битрейт : 1800 Кбит/сек
Ширина : 720 пикселей
Высота : 448 пикселей
Соотношение сторон : 1,607
Частота кадров : 25,000 кадров/сек
Цветовое пространство : YUV
Субдискретизация насыщенности : 4:2:0
Битовая глубина : 8 бит
Тип развёртки : Прогрессивная
Метод сжатия : С потерями
Бит/(Пиксели*Кадры) : 0.223
Размер потока : 560 Мбайт (93%)
Библиотека кодирования : XviD 1.2.1 (UTC 2008-12-04)

Аудио
Идентификатор : 1
Формат : MPEG Audio
Версия формата : Version 1
Профиль формата : Layer 3
Режим : Joint stereo
Идентификатор кодека : 55
Идентификатор кодека/Подсказка : MP3
Продолжительность : 43 м.
Вид битрейта : Постоянный
Битрейт : 128 Кбит/сек
Каналы : 2 канала
Частота : 48,0 КГц
Метод сжатия : С потерями
Размер потока : 39,8 Мбайт (7%)
Выравнивание : Разделение по промежуткам
Продолжительность промежутка : 40 мс. (1,00 видеокадр)
Время предзагрузки промежутка : 500 мс.

скриншоты







Статистика торрента
Раздают: 125 Качают: 189 Размер: 2.32GB Скачали: 15
Имя файла: 39168_raskajanie-tfil.torrent
Похожие торренты
Отзывы пользователей
Добавить отзыв