2.32GB / Горчаков (4 серии из 4) (Андрей Иванов) [2014, боевик, детектив, SATRip]

Категория: фильмы » Боевики
рейтинг из 5
  • Добавил: zlidny
  • Дата: 12/09/14, 21:08:45
  • Просмотры: 299
  • Отзывы: 0
?????
Название игры:
Год выхода игры:
Жанр игры: Детективы, Боевики

Формат: SATRip, AVI, DivX, MP3
Режиссер: Андрей Иванов
Жанр: боевик, детектив
Выпущено: Россия, Украина, Star Media
Продолжительность: 4 х ~00:46:31
Год выпуска: 2014
В ролях: Егор Клеймёнов, Ярослав Бойко, Фархад Махмудов, Алексей Булдаков, Анатолий Зиновенко, Олеся Жураковская, Сергей Деньга, Анна Саливанчук
Описание:
«Горчаков» – это отдельная история о веселом и немного невезучем капитане Олеге Горчакове, известном по популярному сериалу НТВ «Брат за брата». Зрители увидят любимого полицейского не только в привычной рабочей обстановке РОВД, но и на «гражданке» – без формы и погонов. Все силы местного райотдела полиции брошены на борьбу с преступной группой, представитель которой – Вениамин – вез на продажу партию дорогих похищенных медицинских препаратов. Он решил присвоить товар себе и, спасаясь от преследования узнавших об этом бандитов, нашел убежище у своей бывшей пассии – матери капитана полиции Олега Горчакова. Свои противозаконные намерения Вениамин долгое время скрывал, а когда выяснилось, что он — отец Олега, решил использовать сына-оперативника. Не догадываясь о корыстных мотивах новоиспеченного отца, Горчаков и представить не мог, в какой заварухе окажется…



Видео: 720x448 (1.61:1), 25 fps, DivX 5 ~1501 kbps avg, 0.186 bit/pixel
Аудио: 48 kHz, MPEG Layer 3, 2 ch, ~128.00 kbps avg
 

MI
Общее
Полное имя : C:\Users\Admin\Downloads\Gorchakov.01.SATRip.avi
Формат : AVI
Формат/Информация : Audio Video Interleave
Размер файла : 545 Мбайт
Продолжительность : 46 м.
Общий поток : 1638 Кбит/сек
Библиотека кодирования : VirtualDub build 35491/release

Видео
Идентификатор : 0
Формат : MPEG-4 Visual
Параметр BVOP формата : 1
Параметр QPel формата : Нет
Параметр GMC формата : Без точки перехода
Параметр матрицы формата : Default (H.263)
Режим смешивания : Сжатый битовый поток
Идентификатор кодека : DX50
Идентификатор кодека/Подсказка : DivX 5
Продолжительность : 46 м.
Битрейт : 1501 Кбит/сек
Ширина : 720 пикселей
Высота : 448 пикселей
Соотношение сторон : 1,607
Частота кадров : 25,000 кадров/сек
Цветовое пространство : YUV
Субдискретизация насыщенности : 4:2:0
Битовая глубина : 8 бит
Тип развёртки : Прогрессивная
Метод сжатия : С потерями
Бит/(Пиксели*Кадры) : 0.186
Размер потока : 499 Мбайт (92%)
Библиотека кодирования : DivX 6.8.5 (UTC 2009-08-20)

Аудио
Идентификатор : 1
Формат : MPEG Audio
Версия формата : Version 1
Профиль формата : Layer 3
Режим : Joint stereo
Идентификатор кодека : 55
Идентификатор кодека/Подсказка : MP3
Продолжительность : 46 м.
Вид битрейта : Постоянный
Битрейт : 128 Кбит/сек
Каналы : 2 канала
Частота : 48,0 КГц
Метод сжатия : С потерями
Размер потока : 42,6 Мбайт (8%)
Выравнивание : Разделение по промежуткам
Продолжительность промежутка : 40 мс. (1,00 видеокадр)
Время предзагрузки промежутка : 500 мс.

скриншоты





Статистика торрента
Раздают: 388 Качают: 114 Размер: 2.32GB Скачали: 26
Имя файла: 37678_gorchakov-tfile.torrent
Похожие торренты
Отзывы пользователей
Добавить отзыв