2.31GB / Черепашки-ниндзя / Teenage Mutant Ninja Turtles (Джонатан Либесман) [2014, фантастика, фэнтези, боевик, комедия, приключения, WEB-D

Категория: фильмы » Боевики
рейтинг из 5
  • Добавил: zlidny
  • Дата: 31/10/14, 16:26:40
  • Просмотры: 429
  • Отзывы: 0
?????
Название игры:
Год выхода игры:
Жанр игры: Комедии, Приключения, Фантастика, Фентези, Боевики

Перевод: Профессиональный (полное дублирование) чистый звук (официальный)
Субтитры: Английские
Формат: WEB-DLRip-AVC, MKV, H.264, AC3
Страна: США
Режиссер: Джонатан Либесман
Жанр: фантастика, фэнтези, боевик, комедия, приключения
Продолжительность: 01:41:31
Год выпуска: 2014

В ролях: Меган Фокс, Уилл Арнетт, Уильям Фихтнер, Алан Ричсон, Ноэль Фишер, Пит Пложек, Джонни Ноксвил, Джереми Ховард, Дэнни Вудберн, Тони Шэлуб

Описание: Город нуждается в героях. Тьма окутала Нью-Йорк в виде Шреддера и его зловещего Клана Футов, у которого имеется железный контроль над всеми, от полицейских до политиков. Будущее выглядит мрачным, пока из канализации не поднимается и не раскрывает своё предназначение четвёрка отверженных братьев — Черепашки-ниндзя. Черепашки должны работать вместе с бесстрашным репортёром Эйприл и её саркастическим оператором Верном Фенвиком, чтобы спасти город и разгадать дьявольский план Шреддера.



Видео: 1024x426 (2.40:1), 23.976 fps, AVC MPEG-4 (H.264), High@L4.1 ~2680 kbps, 0.256 bit/pixel
Аудио #1: Русский: 48 kHz, AC3 Dolby Digital, 2 ch, ~192 kbps [Профессиональный (полное дублирование)]
Аудио #2: Английский: 48 kHz, AC3 Dolby Digital, 6 ch, ~384 kbps [Оригинал]
 

Отчет MediaInfo
Общее
Уникальный идентификатор : 245077539185888238563801169152909441138 (0xB86037969593AD35868BBAF885D6F872)
Полное имя : D:\Мужа\Черепашки-ниндзя.2014.WEB-DLRip.NNM-CLUB.mkv
Формат : Matroska
Версия формата : Version 2
Размер файла : 2,31 Гбайт
Продолжительность : 1 ч. 41 м.
Общий поток : 3256 Кбит/сек
Название фильма : Черепашки-ниндзя.2014.WEB-DLRip.NNM-CLUB
Дата кодирования : UTC 2014-10-30 21:42:27
Программа кодирования : mkvmerge v4.9.1 ('Ich will') сборка от Jul 11 2011 23:53:15
Библиотека кодирования : libebml v1.2.1 + libmatroska v1.1.1

Видео
Идентификатор : 1
Формат : AVC
Формат/Информация : Advanced Video Codec
Профиль формата : High@L4.1
Параметр CABAC формата : Да
Параметр ReFrames формата : 10 кадров
Идентификатор кодека : V_MPEG4/ISO/AVC
Продолжительность : 1 ч. 41 м.
Битрейт : 2680 Кбит/сек
Ширина : 1024 пикселя
Высота : 426 пикселей
Соотношение сторон : 2,40:1
Режим частоты кадров : Постоянный
Частота кадров : 23,976 кадра/сек
Цветовое пространство : YUV
Субдискретизация насыщенности : 4:2:0
Битовая глубина : 8 бит
Тип развёртки : Прогрессивная
Бит/(Пиксели*Кадры) : 0.256
Размер потока : 1,85 Гбайт (80%)
Заголовок : nnm-club.me
Библиотека кодирования : x264 core 130 r2273 b3065e6
Настройки программы : cabac=1 / ref=10 / deblock=1:-1:-2 / analyse=0x3:0x133 / me=umh / subme=11 / psy=1 / psy_rd=1.00:0.10 / mixed_ref=1 / me_range=32 / chroma_me=1 / trellis=2 / 8x8dct=1 / cqm=0 / deadzone=21,11 / fast_pskip=0 / chroma_qp_offset=-3 / threads=6 / lookahead_threads=1 / sliced_threads=0 / nr=0 / decimate=1 / interlaced=0 / bluray_compat=0 / constrained_intra=0 / bframes=3 / b_pyramid=2 / b_adapt=2 / b_bias=0 / direct=3 / weightb=1 / open_gop=0 / weightp=2 / keyint=240 / keyint_min=23 / scenecut=40 / intra_refresh=0 / rc_lookahead=50 / rc=2pass / mbtree=1 / bitrate=2680 / ratetol=1.0 / qcomp=0.60 / qpmin=0 / qpmax=69 / qpstep=4 / cplxblur=20.0 / qblur=0.5 / ip_ratio=1.40 / aq=1:1.00
Default : Да
Forced : Нет

Аудио #1
Идентификатор : 2
Формат : AC-3
Формат/Информация : Audio Coding 3
Расширение режима : CM (complete main)
Параметр Endianness формата : Big
Идентификатор кодека : A_AC3
Продолжительность : 1 ч. 41 м.
Вид битрейта : Постоянный
Битрейт : 192 Кбит/сек
Каналы : 2 канала
Расположение каналов : Front: L R
Частота : 48,0 КГц
Битовая глубина : 16 бит
Метод сжатия : С потерями
Размер потока : 139 Мбайт (6%)
Заголовок : Line
Язык : Russian
Default : Да
Forced : Нет

Аудио #2
Идентификатор : 3
Формат : AC-3
Формат/Информация : Audio Coding 3
Расширение режима : CM (complete main)
Параметр Endianness формата : Big
Идентификатор кодека : A_AC3
Продолжительность : 1 ч. 41 м.
Вид битрейта : Постоянный
Битрейт : 384 Кбит/сек
Каналы : 6 каналов
Расположение каналов : Front: L C R, Side: L R, LFE
Частота : 48,0 КГц
Битовая глубина : 16 бит
Метод сжатия : С потерями
Размер потока : 279 Мбайт (12%)
Заголовок : Original
Язык : English
Default : Нет
Forced : Нет

Текст
Идентификатор : 4
Формат : UTF-8
Идентификатор кодека : S_TEXT/UTF8
Идентификатор кодека/Информация : UTF-8 Plain Text
Заголовок : Full
Default : Нет
Forced : Нет

Меню
00:00:00.000 : en:Chapter 1
00:02:42.000 : en:Chapter 2
00:06:00.000 : en:Chapter 3
00:11:51.000 : en:Chapter 4
00:16:01.000 : en:Chapter 5
00:22:02.000 : en:Chapter 6
00:28:22.000 : en:Chapter 7
00:34:02.000 : en:Chapter 8
00:38:04.000 : en:Chapter 9
00:42:10.000 : en:Chapter 10
00:48:36.000 : en:Chapter 11
00:55:46.000 : en:Chapter 12
01:00:44.000 : en:Chapter 13
01:07:46.000 : en:Chapter 14
01:15:30.000 : en:Chapter 15
01:24:11.000 : en:Chapter 16
01:30:17.000 : en:Chapter 17
01:34:13.000 : en:Chapter 18

Статистика торрента
Раздают: 382 Качают: 180 Размер: 2.31GB Скачали: 21
Имя файла: 39147_Cherepashki-nin.torrent
Похожие торренты
Отзывы пользователей
Добавить отзыв