2.19GB / Стартрек: Возмездие / Star Trek Into Darkness (Джей Джей Абрамс) [2013, фантастика, боевик, приключения, BDRip-AVC]

Категория: фильмы » Боевики
рейтинг из 5
  • Добавил: zlidny
  • Дата: 22/08/14, 22:28:03
  • Просмотры: 215
  • Отзывы: 0
?????
Название игры:
Год выхода игры:
Жанр игры: Приключения, Фантастика, Боевики

Перевод: Профессиональный (полное дублирование) лицензия, cубтитры: русские, украинские, английские
Формат: BDRip-AVC, MKV, H.264, AC3
Страна: США
Режиссер: Джей Джей Абрамс
Жанр: фантастика, боевик, приключения
Продолжительность: 02:12:05
Год выпуска: 2013

В ролях: Крис Пайн, Закари Куинто, Зои Салдана, Карл Урбан, Саймон Пегг, Бенедикт Камбербэтч, Антон Ельчин, Элис Ив, Джон Чо, Леонард Нимой

Описание: Вернувшись на Землю, команда корабля «Энтерпрайз» обнаруживает, что деятельность и принципы их организации подорваны изнутри. Флот скован необъяснимым ужасом и бездействует, пока мир все глубже погружается в бездну. Капитан Кирк берет на себя руководство операцией по поимке злодея, ответственного за этот хаос и способного уничтожить все человечество. В запутанной игре не на жизнь, а на смерть, любовь и дружба будут принесены в жертву ради единственного, что осталось у Кирка — его команды.



Видео: 1016x424 (2.40:1), 23.976 fps, AVC (H.264), High@L4.1 ~1923 kbps, 0.186 bit/pixel
Аудио: 48 kHz, AC3 Dolby Digital, 3/2 (L,C,R,l,r) + LFE ch, ~448 kbps
 

Отчет MediaInfo
Format : Matroska
Format version : Version 4 / Version 2
File size : 2.19 GiB
Duration : 2h 12mn
Overall bit rate : 2 373 Kbps
Movie name : HELLYWOOD - rip by potroks
Encoded date : UTC 2013-09-11 16:17:49
Writing application : mkvmerge v5.9.0 ('On The Loose') built on Dec 15 2012 16:39:58
Writing library : libebml v1.3.0 + libmatroska v1.4.0

Video
ID : 1
Format : AVC
Format/Info : Advanced Video Codec
Format profile : High@L4.1
Format settings, CABAC : Yes
Format settings, ReFrames : 11 frames
Codec ID : V_MPEG4/ISO/AVC
Duration : 2h 12mn
Bit rate : 1 923 Kbps
Width : 1 016 pixels
Height : 424 pixels
Display aspect ratio : 2.40:1
Frame rate mode : Constant
Frame rate : 23.976 fps
Color space : YUV
Chroma subsampling : 4:2:0
Bit depth : 8 bits
Scan type : Progressive
Bits/(Pixel*Frame) : 0.186
Stream size : 1.73 GiB (79%)
Title : Star Trek Into Darkness
Writing library : x264 core 130 r2273 b3065e6
Encoding settings : cabac=1 / ref=11 / deblock=1:-2:-2 / analyse=0x3:0x133 / me=umh / subme=11 / psy=1 / psy_rd=1.02:0.00 / mixed_ref=1 / me_range=48 / chroma_me=1 / trellis=2 / 8x8dct=1 / cqm=0 / deadzone=21,11 / fast_pskip=0 / chroma_qp_offset=-2 / threads=8 / lookahead_threads=2 / sliced_threads=0 / nr=0 / decimate=1 / interlaced=0 / bluray_compat=0 / constrained_intra=0 / bframes=12 / b_pyramid=2 / b_adapt=2 / b_bias=0 / direct=3 / weightb=1 / open_gop=0 / weightp=2 / keyint=250 / keyint_min=23 / scenecut=40 / intra_refresh=0 / rc_lookahead=60 / rc=2pass / mbtree=0 / bitrate=1923 / ratetol=1.0 / qcomp=0.70 / qpmin=0 / qpmax=69 / qpstep=4 / cplxblur=20.0 / qblur=0.5 / vbv_maxrate=20000 / vbv_bufsize=20000 / nal_hrd=none / ip_ratio=1.35 / pb_ratio=1.25 / aq=1:0.90
Language : English
Default : Yes
Forced : No

Audio
ID : 2
Format : AC-3
Format/Info : Audio Coding 3
Mode extension : CM (complete main)
Format settings, Endianness : Big
Codec ID : A_AC3
Duration : 2h 12mn
Bit rate mode : Constant
Bit rate : 448 Kbps
Channel count : 6 channels
Channel positions : Front: L C R, Side: L R, LFE
Sampling rate : 48.0 KHz
Bit depth : 16 bits
Compression mode : Lossy
Stream size : 423 MiB (19%)
Title : Dub | DD 5.1 @ 448 kbps - Blu-Ray CEE
Language : Russian
Default : Yes
Forced : Yes

Text #1
ID : 3
Format : UTF-8
Codec ID : S_TEXT/UTF8
Codec ID/Info : UTF-8 Plain Text
Title : Forced
Language : Russian
Default : Yes
Forced : Yes

Text #2
ID : 4
Format : UTF-8
Codec ID : S_TEXT/UTF8
Codec ID/Info : UTF-8 Plain Text
Language : Russian
Default : No
Forced : No

Text #3
ID : 5
Format : UTF-8
Codec ID : S_TEXT/UTF8
Codec ID/Info : UTF-8 Plain Text
Language : Ukrainian
Default : No
Forced : No

Text #4
ID : 6
Format : UTF-8
Codec ID : S_TEXT/UTF8
Codec ID/Info : UTF-8 Plain Text
Language : English
Default : No
Forced : No

Text #5
ID : 7
Format : UTF-8
Codec ID : S_TEXT/UTF8
Codec ID/Info : UTF-8 Plain Text
Title : SDH
Language : English
Default : No
Forced : No

Text #6
ID : 8
Format : UTF-8
Codec ID : S_TEXT/UTF8
Codec ID/Info : UTF-8 Plain Text
Title : SDH-COLORED
Language : English
Default : No
Forced : No

Text #7
ID : 9
Format : UTF-8
Codec ID : S_TEXT/UTF8
Codec ID/Info : UTF-8 Plain Text
Title : Notabenoid
Language : Russian
Default : No
Forced : No

Text #8
ID : 10
Format : UTF-8
Codec ID : S_TEXT/UTF8
Codec ID/Info : UTF-8 Plain Text
Title : Forced
Language : Ukrainian
Default : No
Forced : No

Menu
00:00:00.000 : en:00:00:00.000
00:10:20.370 : en:00:10:20.370
00:19:21.494 : en:00:19:21.494
00:30:03.969 : en:00:30:03.969
00:40:09.115 : en:00:40:09.115
00:46:05.262 : en:00:46:05.262
00:56:38.228 : en:00:56:38.228
01:06:35.783 : en:01:06:35.783
01:12:55.663 : en:01:12:55.663
01:22:45.752 : en:01:22:45.752
01:30:54.741 : en:01:30:54.741
01:38:36.369 : en:01:38:36.369
01:47:09.548 : en:01:47:09.548
01:54:17.142 : en:01:54:17.142
01:59:20.653 : en:01:59:20.653
02:03:18.308 : en:02:03:18.308

Статистика торрента
Раздают: 270 Качают: 47 Размер: 2.19GB Скачали: 16
Имя файла: 37163_Startrek.Vozmez.torrent
Похожие торренты
Отзывы пользователей
Добавить отзыв