2.15GB / Проект "Золотой глаз" (1-4 серии из 4) (Грачья Кешишян) [2014, боевик, SATRip]

Категория: фильмы » Боевики
рейтинг из 5
  • Добавил: zlidny
  • Дата: 29/09/14, 09:28:58
  • Просмотры: 176
  • Отзывы: 0
?????
Название игры:
Год выхода игры:
Жанр игры: Боевики

Формат: SATRip, AVI, XviD, AC3
Режиссер: Грачья Кешишян
Жанр: боевик
Продолжительность: 4 x ~ 00:45:00
Год выпуска: 2014
В ролях: Мария Луговая, Александр Пашков, Олег Морозов, Константин Самоуков, Сергей Апрельский, Аполлон Кублашвили
Описание:
После трагической смерти молодого ученого, работавшего над уникальной технологией «Золотой глаз», пропадает его малолетний сын. Следователи ФСБ подозревают, что мальчик знает уникальный код, позволяющий выйти на след изобретения, за которым охотятся сразу несколько международных группировок. Сестра погибшего ученого собирает группу наемников, которые берутся отыскать и спасти ребенка, чьи следы обнаружены где-то в Турции.

Видео: 720x400 (1.80:1), 25 fps, XviD MPEG-4 ~1562 kbps avg, 0.217 bit/pixel
Аудио: 48 kHz, АС3, 2 ch, Front: L R ~192.00 kbps avg
Тех. данные файлов идентичны.
 

MI
Общее
Полное имя : C:\Users\Irina\Downloads\Projekt.Zalatoj.glaz.2014.SATRip.RG.Russkie.serialy.&.Files-x\01.Projekt.Zalatoj.glaz.2014.SATRip.RG.Russkie.serialy.&.Files-x.avi
Формат : AVI
Формат/Информация : Audio Video Interleave
Размер файла : 550 Мбайт
Продолжительность : 43 м.
Общий поток : 1764 Кбит/сек
Программа кодирования : VirtualDubModRus 1.5.10.2 (build 2542/release)
Библиотека кодирования : VirtualDubMod build 2542/release

Видео
Идентификатор : 0
Формат : MPEG-4 Visual
Профиль формата : Advanced Simple@L5
Параметр BVOP формата : 1
Параметр QPel формата : Нет
Параметр GMC формата : Без точки перехода
Параметр матрицы формата : Выборочная
Идентификатор кодека : XVID
Идентификатор кодека/Подсказка : XviD
Продолжительность : 43 м.
Битрейт : 1562 Кбит/сек
Ширина : 720 пикселей
Высота : 400 пикселей
Соотношение сторон : 16:9
Частота кадров : 25,000 кадров/сек
Цветовое пространство : YUV
Субдискретизация насыщенности : 4:2:0
Битовая глубина : 8 бит
Тип развёртки : Прогрессивная
Метод сжатия : С потерями
Бит/(Пиксели*Кадры) : 0.217
Размер потока : 487 Мбайт (89%)
Библиотека кодирования : XviD 73

Аудио
Идентификатор : 1
Формат : AC-3
Формат/Информация : Audio Coding 3
Расширение режима : CM (complete main)
Параметр Endianness формата : Big
Идентификатор кодека : 2000
Продолжительность : 43 м.
Вид битрейта : Постоянный
Битрейт : 192 Кбит/сек
Каналы : 2 канала
Расположение каналов : Front: L R
Частота : 48,0 КГц
Битовая глубина : 16 бит
Метод сжатия : С потерями
Размер потока : 59,8 Мбайт (11%)
Выравнивание : Разделение по промежуткам
Продолжительность промежутка : 40 мс. (1,00 видеокадр)
Время предзагрузки промежутка : 500 мс.

скриншоты





Статистика торрента
Раздают: 249 Качают: 61 Размер: 2.15GB Скачали: 9
Имя файла: 38006_glaz-tfile.ru-.torrent
Похожие торренты
Отзывы пользователей
Добавить отзыв