2.15GB / Позывной "Стая" 2 (1-4 серии из 4) (Андрей Щербинин) [2014, боевик, SATRip]

Категория: фильмы » Боевики
рейтинг из 5
  • Добавил: zlidny
  • Дата: 20/10/14, 15:30:19
  • Просмотры: 555
  • Отзывы: 0
?????
Название игры:
Год выхода игры:
Жанр игры: Боевики

Формат: SATRip, AVI, XviD, AC3
Режиссер: Андрей Щербинин
Жанр: боевик
Продолжительность: 4 x ~ 00:45:00
Год выпуска: 2014
В ролях: Евгений Сидихин, Сергей Воробьёв (IV), Геннадий Казачков, Александр Эрлих, Петр Логачев, Полина Сидихина, Анна Королева (II), Алексей Величко, Юлия Горшенина, Самвел Мужикян, Иван Патраман
Описание:
Будучи в отставке, члены частного боевого отряда исполняют заказы в разных странах. Имея покровителя в российских спецслужбах, «Стая» зачастую берется за
деликатные поручения за пределами своей страны в интересах правительства — в случаях, когда официальными путями государство действовать не может. Непобедимой команде предстоит бросить вызов спецслужбам Англии, Америки и Румынии, затеять смертельную игру с Массадом, отбить миллиард долларов у международной преступной группировки и даже сняться в кино в далекой африканской стране.



Видео: 720x400 (1.80:1), 25 fps, XviD MPEG-4 ~1406 kbps avg, 0.195 bit/pixel
Аудио: 48 kHz, АС3, 2 ch, Front: L R ~192.00 kbps avg
Тех. данные файлов идентичны.
 

MI
Общее
Полное имя : C:\Users\Admin\Downloads\Staja.2.2014.SATRip.Files-x.GeneralFilm\01.Staja.2.2014.SATRip.Files-x.GeneralFilm.avi
Формат : AVI
Формат/Информация : Audio Video Interleave
Размер файла : 551 Мбайт
Продолжительность : 47 м.
Общий поток : 1607 Кбит/сек
Программа кодирования : VirtualDubModRus 1.5.10.2 (build 2542/release)
Библиотека кодирования : VirtualDubMod build 2542/release

Видео
Идентификатор : 0
Формат : MPEG-4 Visual
Профиль формата : Advanced Simple@L5
Параметр BVOP формата : 1
Параметр QPel формата : Нет
Параметр GMC формата : Без точки перехода
Параметр матрицы формата : Выборочная
Идентификатор кодека : XVID
Идентификатор кодека/Подсказка : XviD
Продолжительность : 47 м.
Битрейт : 1406 Кбит/сек
Ширина : 720 пикселей
Высота : 400 пикселей
Соотношение сторон : 16:9
Частота кадров : 25,000 кадров/сек
Цветовое пространство : YUV
Субдискретизация насыщенности : 4:2:0
Битовая глубина : 8 бит
Тип развёртки : Прогрессивная
Метод сжатия : С потерями
Бит/(Пиксели*Кадры) : 0.195
Размер потока : 481 Мбайт (87%)
Библиотека кодирования : XviD 73

Аудио
Идентификатор : 1
Формат : AC-3
Формат/Информация : Audio Coding 3
Расширение режима : CM (complete main)
Параметр Endianness формата : Big
Идентификатор кодека : 2000
Продолжительность : 47 м.
Вид битрейта : Постоянный
Битрейт : 192 Кбит/сек
Каналы : 2 канала
Расположение каналов : Front: L R
Частота : 48,0 КГц
Битовая глубина : 16 бит
Метод сжатия : С потерями
Размер потока : 65,8 Мбайт (12%)
Выравнивание : Разделение по промежуткам
Продолжительность промежутка : 40 мс. (1,00 видеокадр)
Время предзагрузки промежутка : 500 мс.

скриншоты





Статистика торрента
Раздают: 50 Качают: 114 Размер: 2.15GB Скачали: 24
Имя файла: 38702_staja-tfile.ru-.torrent
Похожие торренты
Отзывы пользователей
Добавить отзыв