20.51GB / Код апокалипсиса (2007) Blu-Ray Remux 1080p от ivandubskoj | Лицензия

Категория: фильмы » Боевики
рейтинг из 5
  • Добавил: zlidny
  • Дата: 01/10/14, 13:37:51
  • Просмотры: 290
  • Отзывы: 0
?????
Название игры:
Год выхода игры:
Жанр игры: Приключения, Триллеры, Боевики

Название: Код апокалипсиса
Год выхода: 2007
Жанр: Боевик, триллер, приключения
Режиссёр: Вадим Шмелев
В ролях: Анастасия Заворотнюк, Венсан Перес, Владимир Меньшов, Оскар Кучера, Алексей Серебряков, Олег Штефанко, Рони Крамер, Сергей Газаров, Анатолий Котенёв, Александр Тютин, Александр Цуркан, Кирилл Сафонов, Георгий Тесля-Герасимов, Анжелика Каширина, Руслан Хабибуллов, Джей Бенедикт, Игорь Сидоров, Роман Ефимов, Далип Сигх

О фильме:
Террорист №1 Джаффад Бен Зайиди похитил с затонувшей американской подлодки четыре ядерные боеголовки, спрятав их в крупнейших мегаполисах мира. Заряд активируется четырнадцатизначным кодом, узнать который можно лишь собрав воедино цифры, известные трем приближенным Джаффада, которых никто не видел в лицо. Но террориста убивают при странных обстоятельствах, а его бывший напарник по прозвищу Палач намерен привести бомбы в действие. По его следу пускаются объединившие усилия ФСБ и ЦРУ, чей агент Мари несколько лет назад внедрилась в группировку Джаффада. Теперь под новой легендой ей предстоит спасти мир.



Страна: Россия
Студия: Киностудия "Свет", Фонд поддержки патриотического кино
Продолжительность: 01:50:01
Перевод: Не требуется

Файл
Кодек: MPEG-4 AVC
Качество: Blu-Ray Remux 1080p [Blu-ray 1080p AVC DTS-HD 5.1]
Видео: MPEG-4 AVC, 24259 Kбит/с, 1920x1080, 23.976 кадр/с
Аудио #1: Русский, Dolby АС3, 384 Кбит/с, 48000 Гц, 6 каналов (5.1)
Аудио #2: Русский, DTS-HD HRA, 2047 Кбит/с, 48000 Гц, 6 каналов (5.1)
Субтитры: Английские (Полные, SRT)

Доп. информация: Сохранены оригинальные чаптеры как на Blu-Ray


 

Знаете ли вы, что...

• Рабочее название фильма - «Красивая» (оперативный псевдоним агента ФСБ, в исполнении Анастасии Заворотнюк).
• Помимо Франции, Италии, Норвегии, Малайзии и Украины, съёмки планировались в Лос-Анжелесе и Гаване. В окончательный вариант сценария эти сцены не вошли и съёмки были отменены.
• Режиссёр фильма Вадим Шмелев во время выбора натуры для съёмок налетал на самолёте более 200 часов.
• На парижской улице "Ампер" ночью снимали погоню. Чтобы добавить света, на домах развесили гигантские гелиевые шары, и местные жители с удивлением выходили на балконы, чтобы полюбоваться фантастическим видом. Автомобильные трюки в этой сцене ставила команда каскадёров, работавшая в фильме «Такси».
• Во Флоренции в президентском люксе шикарного отеля "The Westin Excelsior" во время съёмок сработала противопожарная сигнализация, среагировав на мощный световой прибор, стоявший в коридоре. В итоге залило три этажа гостиницы вместе с бесценными гобеленами, картинами и антикварной мебелью. Вода с балконов стекала прямо на улицу. Только одна комната осталась сухой, потому что члены группы заткнули щель под дверью одеждой и сорок минут отсасывали воду пылесосом, чтобы не отменять съёмки! Через два дня в этом номере поселился Сильвио Берлускони.
• В фильме Анастасия Заворотнюк впервые снялась обнаженной в душе. Кстати, после второго дубля в душе закончилась тёплая вода. Выяснилось, что большинство домов в Париже имеют свою бойлерную, где вода нагревается постепенно. Теплой воды так и не дождались, пришлось Насте стоять под холодной. Если внимательно присмотреться, то в кадре заметно, как дрожат от холода её губы, когда она говорит по телефону.
• Новый образ спецагента - стрижку и грим - для Анастасии Заворотнюк разработал Арно Сольдуран, личный стилист Шэрон Стоун.
• Во время съемок в Париже пришлось на день перекрыть одну из центральных улиц, а на площади "Конкорд" - поставить 25-ти метровый кран.
MediaInfo

General
Unique ID : 250680726368309473504127402057825582173 (0xBC975A0B9700259DAB31F4AB57D8FC5D)
Complete name : Kod.apokalipsisa.2007.BDRemux.1080p.mkv
Format : Matroska
File size : 20.5 GiB
Duration : 1h 50mn
Overall bit rate : 26.7 Mbps
Movie name : Код апокалипсиса (2007) Blu-Ray Remux (1080p)
Encoded date : UTC 2014-09-30 18:30:50
Writing application : mkvmerge v6.1.0 ('Old Devil') built on Mar 4 2013 09:10:42
Writing library : libebml v1.3.0 + libmatroska v1.4.0

Video
ID : 1
Format : AVC
Format/Info : Advanced Video Codec
Format profile : High@L4.1
Format settings, CABAC : Yes
Format settings, ReFrames : 4 frames
Codec ID : V_MPEG4/ISO/AVC
Duration : 1h 50mn
Bit rate mode : Variable
Bit rate : 23.7 Mbps
Maximum bit rate : 30.0 Mbps
Width : 1 920 pixels
Height : 1 080 pixels
Display aspect ratio : 16:9
Frame rate : 23.976 fps
Standard : NTSC
Color space : YUV
Chroma subsampling : 4:2:0
Bit depth : 8 bits
Scan type : Progressive
Bits/(Pixel*Frame) : 0.477
Stream size : 18.2 GiB (89%)
Title : Код апокалипсиса (2007)
Language : Russian
Color primaries : BT.709-5, BT.1361, IEC 61966-2-4, SMPTE RP177
Transfer characteristics : BT.709-5, BT.1361
Matrix coefficients : BT.709-5, BT.1361, IEC 61966-2-4 709, SMPTE RP177

Audio #1
ID : 2
Format : AC-3
Format/Info : Audio Coding 3
Mode extension : CM (complete main)
Codec ID : A_AC3
Duration : 1h 50mn
Bit rate mode : Constant
Bit rate : 384 Kbps
Channel(s) : 6 channels
Channel positions : Front: L C R, Side: L R, LFE
Sampling rate : 48.0 KHz
Bit depth : 16 bits
Compression mode : Lossy
Stream size : 302 MiB (1%)
Title : DD 5.1 [Original]
Language : Russian

Audio #2
ID : 3
Format : DTS
Format/Info : Digital Theater Systems
Format profile : HRA / Core
Codec ID : A_DTS
Duration : 1h 50mn
Bit rate mode : Constant
Bit rate : 2 047 Kbps / 1 510 Kbps
Channel(s) : 6 channels
Channel positions : Front: L C R, Side: L R, LFE
Sampling rate : 48.0 KHz
Bit depth : 24 bits
Compression mode : Lossy
Stream size : 1.57 GiB (8%)
Title : DTS-HD HRA 5.1 [Origianl]
Language : Russian

Text
ID : 4
Format : UTF-8
Codec ID : S_TEXT/UTF8
Codec ID/Info : UTF-8 Plain Text
Title : Full
Language : English

Menu
00:00:00.000 : en:Chapter 01
00:07:46.591 : en:Chapter 02
00:19:34.840 : en:Chapter 03
00:30:17.565 : en:Chapter 04
00:40:08.614 : en:Chapter 05
00:49:01.104 : en:Chapter 06
01:01:02.867 : en:Chapter 07
01:09:20.281 : en:Chapter 08
01:19:58.835 : en:Chapter 09
01:29:47.256 : en:Chapter 10
01:37:58.622 : en:Chapter 11
01:40:21.015 : en:Chapter 12
Скриншоты

Статистика торрента
Раздают: 136 Качают: 156 Размер: 20.51GB Скачали: 9
Имя файла: 38101_-rutor.org-Kod..torrent
Похожие торренты
Отзывы пользователей
Добавить отзыв