1.70GB / Король кулачного боя (Кулачный боец) / Fist Fighter (1989) DVDRip | A

Категория: фильмы » Боевики
рейтинг из 5
  • Добавил: zlidny
  • Дата: 31/07/14, 11:56:32
  • Просмотры: 304
  • Отзывы: 0
?????
Название игры:
Год выхода игры:
Жанр игры: Драмы, Боевики

Название: Король кулачного боя (Кулачный боец)
Оригинальное название: Fist Fighter
Год выхода: 1989
Жанр: Боевик, драма, спорт
Режиссер: Фрэнк Суньига
В ролях: Хорхе Риверо, Эдвард Альберт, Бренда Бакки, Майк Коннорс, Симон Андреу, Маттиас Хьюз, Эмильяно Редондо, Элеасар Гарсиа мл., Тони Исберт, Гас Ретвиш, Джимми Никерсон, Хосе Чавес, Хорхе Рейносо, Мануэль Бенитез, Серхио Акоста, Хельмут Шивети, Эдуардо Норьега, Уильям Ротлейн, Эрнест Эверест, Карлос Романо, Леон Тачер, Билли Грэхэм, Хосе Антонио Норьега, Рафаэль Вальдес, Гектор Де Рубин, Джейм Домингез, Мариано Гонсалес, Гас Петерсон, Тони Робертс

О фильме:
Бывший боксер возвращается в городок Розарио в Южной Америке, чтобы отомстить за смерть друга.




Страна: США, Испания, Мексика
Студия: Ízaro Films S.A., Eagle Film, Esme
Продолжительность: 01:32:08
Перевод: Авторский одноголосый

Файл
Кодек: XviD
Качество: DVDRip
Видео: 688х512, 1922 Кбит/с, 25.000 fps
Звук:
Аудио #1: Русский (AC3, 2 ch, 192 Кбит/с) / Авторский одноголосый (Дохалов)
Аудио #2: Русский (AC3, 2 ch, 192 Кбит/с) / Авторский одноголосый (Живов) - отдельно
Аудио #3: Русский (AC3, 2 ch, 192 Кбит/с) / Авторский одноголосый (Неизвестный) - отдельно
Аудио #4: Английский (AC3, 2 ch, 128 Кбит/с) / Оригинал - отдельно
 

Скачать семпл
AviInfo
File: Кулачный боец. 1989. XviD. DVDRip-Morgan73.avi
Title: Кулачный боец (1989)
Author: Rip by Morgan73
Genre: Боевик, драма, спорт
Category: Художественный фильм
Comment: Релиз-группа MediaClub
FileSize: 1400.08 Mb ( 1 468 086 272 bytes )
Play length: 01:32:08.160 (138204 frames)
Subtitles: Not Present
Video: 688x512 (1.34:1), 25 fps, XviD build 50 ~1922 kbps avg, 0.22 bit/pixel
Audio: 48 kHz, AC3 Dolby Digital, 2/0 (L,R) ch, ~192 kbps
MediaInfo
General
Complete name : F:РипыКулачный боец. 1989. XviD. DVDRip-Morgan73Кулачный боец. 1989. XviD. DVDRip-Morgan73.avi
Format : AVI
Format/Info : Audio Video Interleave
File size : 1.37 GiB
Duration : 1h 32mn
Overall bit rate : 2 125 Kbps
Movie name : Кулачный боец (1989)
Director : Rip by Morgan73
Genre : Боевик, драма, спорт
Writing application : VirtualDubMod 1.5.10.2 (build 2540/release)
Original source form/Name : Художественный фильм
Comment : Релиз-группа MediaClub

Video
ID : 0
Format : MPEG-4 Visual
Format profile : Advanced Simple@L5
Format settings, BVOP : 2
Format settings, QPel : No
Format settings, GMC : No warppoints
Format settings, Matrix : Default (MPEG)
Codec ID : XVID
Codec ID/Hint : XviD
Duration : 1h 32mn
Bit rate : 1 923 Kbps
Width : 688 pixels
Height : 512 pixels
Display aspect ratio : 4:3
Frame rate : 25.000 fps
Color space : YUV
Chroma subsampling : 4:2:0
Bit depth : 8 bits
Scan type : Progressive
Compression mode : Lossy
Bits/(Pixel*Frame) : 0.218
Stream size : 1.24 GiB (91%)
Writing library : XviD 1.2.1 (UTC 2008-12-04)

Audio
ID : 1
Format : AC-3
Format/Info : Audio Coding 3
Mode extension : CM (complete main)
Format settings, Endianness : Big
Codec ID : 2000
Duration : 1h 32mn
Bit rate mode : Constant
Bit rate : 192 Kbps
Channel(s) : 2 channels
Channel positions : Front: L R
Sampling rate : 48.0 KHz
Bit depth : 16 bits
Compression mode : Lossy
Stream size : 127 MiB (9%)
Alignment : Split accross interleaves
Interleave, duration : 40 ms (1.00 video frame)
Interleave, preload duration : 500 ms
Ограничения
18+ Для зрителей достигших 18 лет.
Рейтинг MPAA: R
Рейтинг R - Детям до 17 лет обязательно присутствие родителей. Рейтинг R получают фильмы, в содержании которых обязательно содержится материал, предназначенный только для взрослой аудитории. Родителям рекомендуется хорошо подумать, прежде чем посмотреть такой фильм вместе со своими детьми. Фильм, получивший рейтинг R, скорее всего содержит сексуальные сцены, эпизоды с употреблением наркотиков, нецензурную брань, фрагменты с насилием и т.д.
Скриншоты



Релиз от: |


Статистика торрента
Раздают: 41 Качают: 170 Размер: 1.70GB Скачали: 15
Имя файла: 36488_-rutor.org-Kula.torrent
Похожие торренты
Отзывы пользователей
Добавить отзыв