1.46GB / Турбулентность 2: Страх полетов / Turbulence 2: Fear of Flying (1999) DVDRip от New-Team | P

Категория: фильмы » Боевики
рейтинг из 5
  • Добавил: zlidny
  • Дата: 14/08/14, 22:09:50
  • Просмотры: 217
  • Отзывы: 0
?????
Название игры:
Год выхода игры:
Жанр игры: Триллеры, Боевики

Страна: США
Производство: Capital Arts Entertainment, Trimark Pictures

Жанр: боевик, триллер
Год выпуска: 1999
Продолжительность: 01:36:32

Перевод: Профессиональный (многоголосый, закадровый)
Оригинальная аудиодорожка: английский
Cубтитры: русский

Режиссер: Дэвид Маккэй / David Mackay

В ролях:
Крэйг Шеффер, Дженнифер Билз, Том Беренджер, Джеффри Нордлинг, Джей Бразо, Дэрил Шаттлворф, Пол Джарретт, Эндрю Кавадас, Чилтон Крэйн, Питер Келамис...

Описание:
Когда группу пассажиров включили в специальную программу, разработанную с целью избавить людей, опасающихся авиаперелетов, от их страха, они не ожидали, что испытают в этом полете стресс, способный перечеркнуть это желание навсегда. Больше того, злосчастный рейс мог поставить точку на их грешных жизнях!





Исходник: DVD5 R5
Тип релиза: DVDRip
Контейнер: AVI

Видео: 704x528 (4:3), 25,000 fps, XviD ~ 1380 kbps avg, 0.148 bit/pixel
Аудио: 48 kHz, Dolby Digital AC3 5.1, 384 kbps MVO
Аудио: 48 kHz, Dolby Digital AC3 5.1, 384 kbps Английский
Субтитры: SoftSub (srt)

Раздача от:

MediaInfo

Общее
Полное имя : Turbulentnost.2.Strah.poletov.1999.DVDRip_[New-team]_by_AVP_Studio.avi
Формат : AVI
Формат/Информация : Audio Video Interleave
Размер файла : 1,46 Гбайт
Продолжительность : 1 ч. 36 м.
Общий поток : 2162 Кбит/сек
Программа кодирования : VirtualDubModRus 1.5.10.2 (build 2542/release)
Библиотека кодирования : VirtualDubMod build 2542/release

Видео
Идентификатор : 0
Формат : MPEG-4 Visual
Профиль формата : Advanced Simple@L5
Параметр BVOP формата : 1
Параметр QPel формата : Нет
Параметр GMC формата : Без точки перехода
Параметр матрицы формата : Выборочная
Идентификатор кодека : XVID
Идентификатор кодека/Подсказка : XviD
Продолжительность : 1 ч. 36 м.
Битрейт : 1380 Кбит/сек
Ширина : 704 пикселя
Высота : 528 пикселей
Соотношение сторон : 4:3
Частота кадров : 25,000 кадров/сек
Цветовое пространство : YUV
Субдискретизация насыщенности : 4:2:0
Битовая глубина : 8 бит
Тип развёртки : Прогрессивная
Метод сжатия : С потерями
Бит/(Пиксели*Кадры) : 0.148
Размер потока : 953 Мбайт (64%)
Библиотека кодирования : XviD 73

Аудио #1
Идентификатор : 1
Формат : AC-3
Формат/Информация : Audio Coding 3
Расширение режима : CM (complete main)
Параметр Endianness формата : Big
Идентификатор кодека : 2000
Продолжительность : 1 ч. 36 м.
Вид битрейта : Постоянный
Битрейт : 384 Кбит/сек
Каналы : 6 каналов
Расположение каналов : Front: L C R, Side: L R, LFE
Частота : 48,0 КГц
Битовая глубина : 16 бит
Метод сжатия : С потерями
Размер потока : 265 Мбайт (18%)
Выравнивание : Разделение по промежуткам
Продолжительность промежутка : 40 мс. (1,00 видеокадр)
Время предзагрузки промежутка : 500 мс.

Аудио #2
Идентификатор : 2
Формат : AC-3
Формат/Информация : Audio Coding 3
Расширение режима : CM (complete main)
Параметр Endianness формата : Big
Идентификатор кодека : 2000
Продолжительность : 1 ч. 36 м.
Вид битрейта : Постоянный
Битрейт : 384 Кбит/сек
Каналы : 6 каналов
Расположение каналов : Front: L C R, Side: L R, LFE
Частота : 48,0 КГц
Битовая глубина : 16 бит
Метод сжатия : С потерями
Размер потока : 265 Мбайт (18%)
Выравнивание : Разделение по промежуткам
Продолжительность промежутка : 40 мс. (1,00 видеокадр)
Время предзагрузки промежутка : 500 мс

 

Скриншоты



Статистика торрента
Раздают: 147 Качают: 135 Размер: 1.46GB Скачали: 7
Имя файла: 37004_-rutor.org-Turb.torrent
Похожие торренты
Отзывы пользователей
Добавить отзыв