1.46GB / Рейд 2 / The Raid 2: Berandal (Гарет Эванс) [2014, боевик, триллер, криминал, BDRip-AVC]

Категория: фильмы » Боевики
рейтинг из 5
  • Добавил: zlidny
  • Дата: 01/08/14, 15:03:28
  • Просмотры: 241
  • Отзывы: 0
?????
Название игры:
Год выхода игры:
Жанр игры: Криминал, Триллеры, Боевики

Перевод: Авторский (одноголосый) [Д. Есарев]

Cубтитры: русские (х2), английские (Full + SDH + Comments)

Формат: BDRip-AVC, MKV, H.264, AC3

Страна: Индонезия, США

Режиссер: Гарет Эванс

Жанр: боевик, триллер, криминал

Продолжительность: 02:30:28

Год выпуска: 2014

В ролях: Тио Пакусодево, Ока Антара, Дони Аламсях, Джули Эстелль, Яян Рухьян, Рюхэй Мацуда, Алекс Аббад, Арифин Путра, Сесеп Ариф Рахман, Ико Ювайс

Описание: Из трех полицейских, выбравшихся из кровавого ада первой части, в живых остается только офицер Рама. Уволившись из спецназа, он пробует начать жизнь заново, но вскоре прошлое жестко напоминает о себе — преступники убивают его брата. Чтобы отомстить, он внедряется в мощный криминальный синдикат, где быстро поднимается до самых вершин бандитской иерархии. Врагов здесь еще больше, и каждый неверный шаг может оказаться последним. Здесь нет ни близких, ни друзей, ни любви, ни тоски, ни жалости!

______________

Видео: 948x394 (2,40:1), 23,976 fps, AVC (H.264), High@L4.1 ~ 1200 Кbps, 0.134 bit/pixel
Аудио: 48 kHz, AC3 Dolby Digital, 2/0 (L,R) ch, 192 kbps
 

 
Интересные факты
Основные съемки начались 20 января 2013 года, а продакшн был завершен в первую неделю августа 2013 года.

Гарет Эванс упомянул в своем твиттере, что в 95 процентах съемочного процесса он использовал камеру RED Scarlet. Для съемки сцен с замедленным движением — Epic. А для быстрых сцен во время автомобильной погони — Go Pro 3.

Режиссер Гарет Эванс потратил 6 недель на постановку финальной драки.

Сценарий ко второму фильму серии был написан раньше, чем к первому. Но режиссеру пришлось сначала снимать первый фильм из-за нехватки финансирования на второй.

Все удары руками и ногами нанесенные актерам были настоящими. Для этого актеры проходили специальную подготовку, чтобы научиться контролировать силу и скорость своих ударов.

У Джули Эстелль не было опыта в боевых искусствах. На изучение основ «Силата» у нее было всего 6 месяцев.

Во время съемок сцен драк приходилось устраивать частые перерывы по 20-30 минут, чтобы визажисты могли отразить на лицах актеров полученные их героями повреждения.

Во время съемки сцены автомобильной погони дорогу перекрывали с 6 утра до 6 вечера.

Подготовка к съемке боевых сцен заняла 18 месяцев, это без учета времени потраченного на постановку хореографии, которая была выполнена еще перед съемками первого фильма.

Сцена в тюрьме снималась в Benteng Van Der Wijck (Кебумен, Центральная Ява, Индонезия).

В пересмотренном сценарии была изменена мотивация главного героя — это привело к появлению персонажа Рамы, полицейского под прикрытием. Также в новом сценарии Гарет Эванс добавил экшн сцену, которая происходит в такси. В основе этой сцены лежит реальная история, которую Эванс услышал от своего друга, как раз в тот момент, когда он дорабатывал сценарий.

Арифин Путра для подготовки к своей роли набрал около 10 килограммов веса.

Музыка, которая звучит в первых трейлерах, — это «Сарабанда» Георга Фридриха Генделя.
MediaInfo
Общее
Уникальный идентификатор : 179959833967479103958758863550558760291 (0x876300D86EA085988ECCE5DABDA3ED63)
Полное имя : E:\Reyd.2.2014.RUS.BDRip.x264.-HELLYWOOD.mkv
Формат : Matroska
Размер файла : 1,47 Гбайт
Продолжительность : 2 ч. 30 м.
Общий поток : 1392 Кбит/сек
Название фильма : The Raid 2: Berandal
Дата кодирования : UTC 2014-07-21 20:09:45
Программа кодирования : mkvmerge v5.0.1 ('Es ist Sommer') built on Oct 9 2011 11:55:43
Библиотека кодирования : libebml v1.2.2 + libmatroska v1.3.0

Видео
Идентификатор : 1
Формат : AVC
Формат/Информация : Advanced Video Codec
Профиль формата : High@L4.1
Параметр CABAC формата : Да
Параметр ReFrames формата : 8 кадров
Идентификатор кодека : V_MPEG4/ISO/AVC
Продолжительность : 2 ч. 40 м.
Битрейт : 1200 Кбит/сек
Ширина : 948 пикс.
Высота : 394 пикс.
Соотношение сторон : 2,40:1
Частота кадров : 23,976 кадр/сек
Цветовое пространство : YUV
Подвыборка цветности : 4:2:0
Битовая глубина : 8 бит
Тип развёртки : Прогрессивная
Бит/(Пиксели*Кадры) : 0.134
Размер потока : 1,41 Гбайт (67%)
Заголовок : Enigma-Vladislav71
Библиотека кодирования : x264 core 116 r2044 392e762
Настройки программы : cabac=1 / ref=8 / deblock=1:-2:-2 / analyse=0x3:0x113 / me=umh / subme=10 / psy=1 / psy_rd=1.00:0.20 / mixed_ref=1 / me_range=32 / chroma_me=1 / trellis=2 / 8x8dct=1 / cqm=0 / deadzone=21,11 / fast_pskip=0 / chroma_qp_offset=-3 / threads=12 / sliced_threads=0 / nr=0 / decimate=0 / interlaced=0 / bluray_compat=0 / constrained_intra=0 / bframes=8 / b_pyramid=2 / b_adapt=2 / b_bias=0 / direct=3 / weightb=1 / open_gop=0 / weightp=2 / keyint=240 / keyint_min=23 / scenecut=40 / intra_refresh=0 / rc=2pass / mbtree=0 / bitrate=2022 / ratetol=1.0 / qcomp=0.60 / qpmin=0 / qpmax=69 / qpstep=4 / cplxblur=20.0 / qblur=0.5 / ip_ratio=1.40 / pb_ratio=1.30 / aq=1:1.00

Аудио #1
Идентификатор : 2
Формат : AC-3
Формат/Информация : Audio Coding 3
Расширение режима : CM (complete main)
Идентификатор кодека : A_AC3
Продолжительность : 2 ч. 30 м.
Вид битрейта : Постоянный
Битрейт : 192 Кбит/сек
Каналы : 2 каналов
Расположение каналов : Front: L R, Side: L R
Частота : 48,0 КГц
Битовая глубина : 16 бит
Метод сжатия : С потерями
Размер потока : 329 Мбайт (15%)
Заголовок : AVO

Статистика торрента
Раздают: 324 Качают: 40 Размер: 1.46GB Скачали: 15
Имя файла: 36564_Reyd.2.2014.RUS.torrent
Похожие торренты
Отзывы пользователей
Добавить отзыв