1.46GB / Хищники / Predators (Нимрод Антал) [2010, фантастика, боевик, триллер, приключения, BDRip-AVC]

Категория: фильмы » Боевики
рейтинг из 5
  • Добавил: zlidny
  • Дата: 01/08/14, 14:50:33
  • Просмотры: 271
  • Отзывы: 0
?????
Название игры:
Год выхода игры:
Жанр игры: Приключения, Триллеры, Фантастика, Боевики

Перевод: Профессиональный (полное дублирование), субтитры: русские, украинские, английские
Формат: BDRip-AVC, MKV, H.264, AC3
Страна: США
Режиссер: Нимрод Антал
Жанр: фантастика, боевик, триллер, приключения
Продолжительность: 01:46:52
Год выпуска: 2010

В ролях: Эдриан Броуди, Тофер Грейс, Алиси Брага, Уолтон Гоггинс, Олег Тактаров, Лоренс Фишбёрн, Дэнни Трехо, Луис Одзава Чангчьен, Махершалалхашбаз Али, Кэри Джонс

Описание: Наемник Ройс невольно вынужден возглавить группу профессионалов, выполняющих загадочную миссию на неизвестной планете. За исключением опального доктора все они - хладнокровные убийцы: наемники, гангстеры, осужденные и участники отрядов смерти людские «хищники». Но когда их начинает систематически преследовать и истреблять невообразимое чудовище, становится очевидно, что теперь они в роли своих жертв.



Видео: 960x408 (2.35:1), 23.976 fps, AVC (H.264), High@L4.1 ~1572 kbps, 0.167 bit/pixel
Аудио: 48 kHz, AC3 Dolby Digital, 3/2 (L,C,R,l,r) + LFE ch, ~384.00 kbps
 

Отчет MediaInfo
Общее
Уникальный идентификатор : 228825512199658600633756112541312863441 (0xAC2630CB1051E88EA0C3966E826FCCD1)
Полное имя : E:\Hischniki.2010.RUS.BDRip.x264.-HELLYWOOD.mkv
Формат : Matroska
Версия формата : Version 2
Размер файла : 1,46 Гбайт
Продолжительность : 1 ч. 46 м.
Общий поток : 1957 Кбит/сек
Дата кодирования : UTC 2012-06-08 04:03:35
Программа кодирования : mkvmerge v5.6.0 ('Kenya Kane') built on May 27 2012 16:44:04
Библиотека кодирования : libebml v1.2.3 + libmatroska v1.3.0

Видео
Идентификатор : 1
Формат : AVC
Формат/Информация : Advanced Video Codec
Профиль формата : High@L4.1
Параметр CABAC формата : Да
Параметр ReFrames формата : 9 кадров
Идентификатор кодека : V_MPEG4/ISO/AVC
Продолжительность : 1 ч. 46 м.
Битрейт : 1572 Кбит/сек
Ширина : 960 пикселей
Высота : 408 пикселей
Соотношение сторон : 2,35:1
Режим частоты кадров : Переменный
Частота кадров : 23,976 кадра/сек
Цветовое пространство : YUV
Субдискретизация насыщенности : 4:2:0
Битовая глубина : 8 бит
Тип развёртки : Прогрессивная
Бит/(Пиксели*Кадры) : 0.167
Размер потока : 1,15 Гбайт (78%)
Заголовок : Hiwniki.2010.D.BDRip.x264.potroks
Библиотека кодирования : x264 core 116 r2019M 9cc407d
Настройки программы : cabac=1 / ref=10 / deblock=1:-3:-3 / analyse=0x3:0x133 / me=umh / subme=9 / psy=1 / psy_rd=1.00:0.00 / mixed_ref=1 / me_range=42 / chroma_me=1 / trellis=1 / 8x8dct=1 / cqm=0 / deadzone=21,13 / fast_pskip=0 / chroma_qp_offset=-2 / threads=8 / sliced_threads=0 / nr=0 / decimate=1 / interlaced=0 / bluray_compat=0 / constrained_intra=0 / bframes=8 / b_pyramid=1 / b_adapt=2 / b_bias=0 / direct=3 / weightb=1 / open_gop=0 / weightp=2 / keyint=230 / keyint_min=23 / scenecut=40 / intra_refresh=0 / rc_lookahead=100 / rc=2pass / mbtree=1 / bitrate=1572 / ratetol=1.0 / qcomp=0.60 / qpmin=10 / qpmax=53 / qpstep=4 / cplxblur=20.0 / qblur=0.7 / ip_ratio=1.40 / aq=1:1.20
Язык : English
Default : Да
Forced : Нет

Аудио
Идентификатор : 2
Формат : AC-3
Формат/Информация : Audio Coding 3
Расширение режима : CM (complete main)
Параметр Endianness формата : Big
Идентификатор кодека : A_AC3
Продолжительность : 1 ч. 46 м.
Вид битрейта : Постоянный
Битрейт : 384 Кбит/сек
Каналы : 6 каналов
Расположение каналов : Front: L C R, Side: L R, LFE
Частота : 48,0 КГц
Битовая глубина : 16 бит
Метод сжатия : С потерями
Размер потока : 294 Мбайт (20%)
Заголовок : Dub AC3, 5.1 ch., 384 kbps
Язык : Russian
Default : Да
Forced : Нет

Текст #1
Идентификатор : 3
Формат : UTF-8
Идентификатор кодека : S_TEXT/UTF8
Идентификатор кодека/Информация : UTF-8 Plain Text
Заголовок : R5
Язык : Russian

Текст #2
Идентификатор : 4
Формат : UTF-8
Идентификатор кодека : S_TEXT/UTF8
Идентификатор кодека/Информация : UTF-8 Plain Text
Заголовок : Notabenoid
Язык : Russian

Текст #3
Идентификатор : 5
Формат : UTF-8
Идентификатор кодека : S_TEXT/UTF8
Идентификатор кодека/Информация : UTF-8 Plain Text
Заголовок : egor-motygin (+18)
Язык : Russian

Текст #4
Идентификатор : 6
Формат : UTF-8
Идентификатор кодека : S_TEXT/UTF8
Идентификатор кодека/Информация : UTF-8 Plain Text
Заголовок : R5
Язык : Ukrainian

Текст #5
Идентификатор : 7
Формат : UTF-8
Идентификатор кодека : S_TEXT/UTF8
Идентификатор кодека/Информация : UTF-8 Plain Text
Заголовок : SDH
Язык : English

Статистика торрента
Раздают: 171 Качают: 47 Размер: 1.46GB Скачали: 11
Имя файла: 36558_Hischniki.2010..torrent
Похожие торренты
Отзывы пользователей
Добавить отзыв