1.45GB / Аномалия / The Anomaly (Ноэль Кларк) [2014, фантастика, боевик, BDRip-AVC]

Категория: фильмы » Боевики
рейтинг из 5
  • Добавил: zlidny
  • Дата: 27/10/14, 17:55:16
  • Просмотры: 457
  • Отзывы: 0
?????
Название игры:
Год выхода игры:
Жанр игры: Фантастика, Боевики

Перевод: Профессиональный (полное дублирование) [Лицензия]

Субтитры: отсутствуют

Формат: BDRip-AVC, MKV, H.264, AC3

Страна: Великобритания

Режиссер: Ноэль Кларк

Жанр: фантастика, боевик

Продолжительность: 01:36:38

Год выпуска: 2014

В ролях: Алексис Нэп, Ноэль Кларк, Иен Сомерхолдер, Брайан Кокс, Люк Хемсворт, Ниал Грег Фултон, Майкл Биспинг, Али Кук, Арт Паркинсон

Описание: Бывший солдат попадает в плен. Очнувшись, он узнает, что у него осталось всего несколько минут, чтобы понять, как он туда попал…

_______________

Видео: 960x408 (2.35:1), 23.976 fps, AVC (H.264), High@L4.1 ~ 1767 Кbps, 0,188 bit/pixel
Аудио: 48 kHz, AC3 Dolby Digital, 3/2 (L,C,R,l,r) + LFE ch, ~384.00 kbps
 

MediaInfo
General
Unique ID : 193366941137416905213568596923116473940 (0x91791E439B91C2F8BCB6A004E890CE54)
Complete name : E:\The.Anomaly.2014.RUS.BDRip-AVC.AC3.-Vikosol.mkv
Format : Matroska
File size : 1.45 GiB
Duration : 1h 36mn
Overall bit rate : 2 153 Kbps
Encoded date : UTC 2014-10-26 15:06:10
Writing application : mkvmerge v6.8.0 ('Theme for Great Cities') 64bit built on Mar 2 2014 21:34:26
Writing library : libebml v1.3.0 + libmatroska v1.4.1

Video
ID : 1
Format : AVC
Format/Info : Advanced Video Codec
Format profile : High@L4.1
Format settings, CABAC : Yes
Format settings, ReFrames : 12 frames
Codec ID : V_MPEG4/ISO/AVC
Duration : 1h 36mn
Bit rate : 1 767 Kbps
Width : 960 pixels
Height : 408 pixels
Display aspect ratio : 2.35:1
Frame rate : 23.976 fps
Color space : YUV
Chroma subsampling : 4:2:0
Bit depth : 8 bits
Scan type : Progressive
Bits/(Pixel*Frame) : 0.188
Stream size : 1.17 GiB (80%)
Writing library : x264 core 142 r2409+42 04be48a tMod [8-bit@all X86_64]
Encoding settings : cabac=1 / ref=12 / deblock=1:-2:-2 / analyse=0x3:0x133 / me=umh / subme=11 / psy=1 / fade_compensate=0.00 / psy_rd=1.05:0.00 / mixed_ref=1 / me_range=32 / chroma_me=1 / trellis=2 / 8x8dct=1 / cqm=0 / deadzone=21,11 / fast_pskip=0 / chroma_qp_offset=-2 / threads=6 / lookahead_threads=1 / sliced_threads=0 / nr=0 / decimate=0 / interlaced=0 / bluray_compat=0 / constrained_intra=0 / fgo=0 / bframes=9 / b_pyramid=2 / b_adapt=2 / b_bias=0 / direct=3 / weightb=1 / open_gop=0 / weightp=2 / keyint=250 / keyint_min=23 / scenecut=40 / intra_refresh=0 / rc_lookahead=60 / rc=2pass / mbtree=0 / bitrate=1767 / ratetol=1.0 / qcomp=0.70 / qpmin=0:0:0 / qpmax=69:69:69 / qpstep=4 / cplxblur=20.0 / qblur=0.5 / vbv_maxrate=50000 / vbv_bufsize=62500 / nal_hrd=none / filler=0 / ip_ratio=1.30 / pb_ratio=1.20 / aq=1:0.70 / aq-sensitivity=10.00 / aq-factor=1.00:1.00:1.00 / aq2=0 / aq3=0
Language : English
Matrix coefficients : BT.709-5, BT.1361, IEC 61966-2-4 709, SMPTE RP177

Audio
ID : 2
Format : AC-3
Format/Info : Audio Coding 3
Mode extension : CM (complete main)
Codec ID : A_AC3
Duration : 1h 36mn
Bit rate mode : Constant
Bit rate : 384 Kbps
Channel(s) : 6 channels
Channel positions : Front: L C R, Side: L R, LFE
Sampling rate : 48.0 KHz
Bit depth : 16 bits
Compression mode : Lossy
Stream size : 265 MiB (18%)
Title : Дубляж, R5
Language : Russian

Menu
00:00:00.000 : en:Chapter 01
00:08:58.955 : en:Chapter 02
00:16:34.535 : en:Chapter 03
00:23:41.711 : en:Chapter 04
00:31:54.662 : en:Chapter 05
00:40:54.577 : en:Chapter 06
00:51:02.059 : en:Chapter 07
00:59:28.147 : en:Chapter 08
01:05:38.768 : en:Chapter 09
01:14:22.458 : en:Chapter 10
01:22:12.385 : en:Chapter 11
01:28:36.144 : en:Chapter 12

Статистика торрента
Раздают: 316 Качают: 33 Размер: 1.45GB Скачали: 19
Имя файла: 38931_The.Anomaly.201.torrent
Похожие торренты
Отзывы пользователей
Добавить отзыв