1.37GB / Суперколлайдер / Supercollider (2013) HDRip

Категория: фильмы » Боевики
рейтинг из 5
  • Добавил: zlidny
  • Дата: 15/07/14, 20:09:02
  • Просмотры: 161
  • Отзывы: 0
?????
Название игры:
Год выхода игры:
Жанр игры: Драмы, Фантастика, Боевики

Год выпуска: 2013
Производство: Канада
Жанр: Фантастика, Боевик, Драма

Режиссер: Джеффри Скотт Ландо
Продюсер: Джеффри Грин, Джон Каппилла, Нико Фостер
Актеры: Робин Данн, Эми Бэйли, Брендан Бейзер, Энцо Чиленти, Филип Руди, Яна Маринова, Эмилиа Клэйн, Джордан Андонов, Джейсон Френсис

Описание фильма:
Новый Большой адронный коллайдер, созданный в США, несёт угрозу всему миру. Сможет ли возглавляющий проект доктор Виктор Брокэн предотвратить её?

Перевод: Многоголосый закадровый, профессиональный
Субтитры: Отсутствуют

pic pic pic

Дата мировой премьеры: 2 ноября 2013

Продолжительность: 01:27:50
Качество видео: HDRip

Видеокодек: Xvid
Битрейт видео: ~2026 Kbit/s
Размер кадра: 720 x 400
Аудиокодек: AC3 2.0
Битрейт аудио: 192 Kbit/s

MediaInfo
Общее
Полное имя : D:\Торренты\РЕЛИЗЫ\Суперколлайдер.2013.HDRip.1400MB.avi
Формат : AVI
Формат/Информация : Audio Video Interleave
Размер файла : 1,37 Гбайт
Продолжительность : 1 ч. 27 м.
Общий поток : 2227 Кбит/сек
Программа кодирования : VirtualDubMod 1.5.10.2 (build 2540/release)
Библиотека кодирования : VirtualDubMod build 2540/release

Видео
Идентификатор : 0
Формат : MPEG-4 Visual
Профиль формата : Advanced Simple@L5
Параметр BVOP формата : 2
Параметр QPel формата : Нет
Параметр GMC формата : Без точки перехода
Параметр матрицы формата : Default (MPEG)
Идентификатор кодека : XVID
Идентификатор кодека/Подсказка : XviD
Продолжительность : 1 ч. 27 м.
Битрейт : 2026 Кбит/сек
Ширина : 720 пикс.
Высота : 400 пикс.
Соотношение сторон : 16:9
Частота кадров : 23,976 кадр/сек
Цветовое пространство : YUV
Подвыборка цветности : 4:2:0
Битовая глубина : 8 бит
Тип развёртки : Прогрессивная
Метод сжатия : С потерями
Бит/(Пиксели*Кадры) : 0.293
Размер потока : 1,24 Гбайт (91%)
Библиотека кодирования : XviD 1.2.1 (UTC 2008-12-04)

Аудио
Идентификатор : 1
Формат : AC-3
Формат/Информация : Audio Coding 3
Расширение режима : CM (complete main)
Идентификатор кодека : 2000
Продолжительность : 1 ч. 27 м.
Вид битрейта : Постоянный
Битрейт : 192 Кбит/сек
Каналы : 2 канала
Расположение каналов : Front: L R
Частота : 48,0 КГц
Битовая глубина : 16 бит
Метод сжатия : С потерями
Размер потока : 121 Мбайт (9%)
Выравнивание : Разделение по промежуткам
Продолжительность промежутка : 42 мс. (1,00 видеокадр)
Время предзагрузки промежутка : 500 ms

Скриншоты:
pic pic pic pic pic pic


Статистика торрента
Раздают: 23 Качают: 95 Размер: 1.37GB Скачали: 24
Имя файла: 35902_-NNM-Club.me-Su.torrent
Похожие торренты
Отзывы пользователей
Добавить отзыв