1.26GB / Братство клинков / Xiu Chun Dao (Ян Лу) [2014, боевик, драма, WEBRip-AVC]

Категория: фильмы » Боевики
рейтинг из 5
  • Добавил: zlidny
  • Дата: 14/10/14, 20:28:33
  • Просмотры: 208
  • Отзывы: 0
?????
Название игры:
Год выхода игры:
Жанр игры: Драмы, Боевики

Перевод: Любительский (двухголосый) (Дмитрий Познанский и Елена Егорова) [GREEN TEA]

Субтитры: китайские, английские (вшитые)

Формат: WEBRip-AVC, MKV, H.264, AC3

Страна: Китай

Режиссер: Ян Лу

Жанр: боевик, драма

Продолжительность: 01:47:07

Год выпуска: 2014

В ролях: Сесилия Лиу, Тсиэнюань Ван, Дун Сюэ Ли, Йуан Ние, Шицзе Дзинь, Дань Чжу, Ивэй Чжоу, Тсин Е, Лисинь Чжао

Описание: Династия Мин, три друга, которые служат в Цзиньивей, отправляются на поиски политика Вэй Чжунсяня, который был вынужден покинуть свой пост и бежать из Пекина. Они легко справляются со своей задачей, и возвращаются в Цзиньивей. Там они понимают, что впутаны в тайный заговор, и спасение политика это только начало...

_________________

Видео: 1280x528 (2.40:1), 23.976 fps, AVC (H.264), High@L3.1 ~ 1500 Кbps, 0.089 bit/pixel
Аудио: 48 kHz, AC3 Dolby Digital, 2/0 (L,R) ch, ~ 192 kbps
 

MediaInfo
General
Unique ID : 223350129418094966796877389811455662674 (0xA807AB946241CD1F9A7178FF420C9A52)
Complete name : E:\Bratstvo Klinkov.mkv
Format : Matroska
File size : 1.26 GiB
Duration : 1h 47mn
Overall bit rate : 1 682 Kbps
Encoded date : UTC 2014-10-11 14:07:51
Writing application : mkvmerge v2.4.0 ('Fumbling Towards Ecstasy') built on Oct 11 2008 20:13:15
Writing library : libebml v0.7.7 + libmatroska v0.8.1

Video
ID : 1
Format : AVC
Format/Info : Advanced Video Codec
Format profile : High@L3.1
Format settings, CABAC : Yes
Format settings, ReFrames : 4 frames
Codec ID : V_MPEG4/ISO/AVC
Duration : 1h 47mn
Bit rate : 1 500 Kbps
Width : 1 280 pixels
Height : 528 pixels
Display aspect ratio : 2.40:1
Frame rate : 25.000 fps
Color space : YUV
Chroma subsampling : 4:2:0
Bit depth : 8 bits
Scan type : Progressive
Bits/(Pixel*Frame) : 0.089
Stream size : 1.09 GiB (87%)
Writing library : x264 core 116 r2074 2641b9e
Encoding settings : cabac=1 / ref=3 / deblock=1:-2:-2 / analyse=0x3:0x113 / me=hex / subme=7 / psy=1 / psy_rd=1.00:0.00 / mixed_ref=1 / me_range=16 / chroma_me=1 / trellis=1 / 8x8dct=1 / cqm=0 / deadzone=21,11 / fast_pskip=1 / chroma_qp_offset=-2 / threads=6 / sliced_threads=0 / nr=0 / decimate=0 / interlaced=0 / bluray_compat=0 / constrained_intra=0 / bframes=3 / b_pyramid=2 / b_adapt=1 / b_bias=0 / direct=1 / weightb=1 / open_gop=0 / weightp=2 / keyint=250 / keyint_min=25 / scenecut=40 / intra_refresh=0 / rc_lookahead=40 / rc=abr / mbtree=1 / bitrate=1500 / ratetol=1.0 / qcomp=0.60 / qpmin=0 / qpmax=69 / qpstep=4 / ip_ratio=1.40 / aq=1:1.00

Audio
ID : 2
Format : AC-3
Format/Info : Audio Coding 3
Mode extension : CM (complete main)
Codec ID : A_AC3
Duration : 1h 47mn
Bit rate mode : Constant
Bit rate : 192 Kbps
Channel(s) : 2 channels
Channel positions : Front: L R
Sampling rate : 48.0 KHz
Bit depth : 16 bits
Compression mode : Lossy
Stream size : 147 MiB (11%)

Статистика торрента
Раздают: 234 Качают: 177 Размер: 1.26GB Скачали: 16
Имя файла: 38492_Bratstvo_Klinko.torrent
Похожие торренты
Отзывы пользователей
Добавить отзыв