10.21GB / Дивергент / Divergent (2014) BDRip 1080p | iTunes

Категория: фильмы » Боевики
рейтинг из 5
  • Добавил: zlidny
  • Дата: 23/07/14, 22:42:30
  • Просмотры: 218
  • Отзывы: 0
?????
Название игры:
Год выхода игры:
Жанр игры: Приключения, Фантастика, Боевики

Название: Дивергент
Оригинальное название: Divergent
Год выпуска: 2014
Жанр: Фантастика, боевик, приключения
Режиссер: Нил Бёргер
В ролях:Шейлин Вудли, Тео Джеймс, Эшли Джадд, Джай Кортни, Рэй Стивенсон, Зои Кравиц, Майлз Теллер, Тони Голдуин, Мэгги Кью, Кейт Уинслет

Действие развивается на Земле в будущем, в деспотичном Чикаго. Все подростки, достигшие 16 лет, обязаны выбрать одну из пяти фракций и присоединиться к ней на всю оставшуюся жизнь. Каждая фракция представляет определенное качество: Искренность, Отречение, Бесстрашие, Дружелюбие и Эрудиция.


Выпущено: США / Red Wagon Productions, Summit Entertainment
Продолжительность: 02:13:56
Озвучивание: Дублированное [iTunes]

Файл
Формат: MKV
Качество: BDRip 1080p
Видео: 8571 kb/s, 1920x800
Аудио: Russian: AC3, 384 kb/s (6 ch) / English: DTS, 1509 kb/s (6 ch)
Дополнительно: Сохранены оригинальные чаптеры
Cубтитров: Русский, Aнглийский (full, SDH, SDH-colored)
Размер: 10.2 GB
Скачать: Сэмпл



Media Info
Формат : Matroska
Версия формата : Version 2
Размер файла : 10,2 Гбайт
Продолжительность : 2 ч. 19 м.
Общий поток : 10,5 Мбит/сек
Дата кодирования : UTC 2014-07-23 07:40:30
Программа кодирования : mkvmerge v6.4.1 ('Omega Point') built on Sep 16 2013 22:05:10
Библиотека кодирования : libebml v1.3.0 + libmatroska v1.4.1

Видео
Идентификатор : 1
Формат : AVC
Формат/Информация : Advanced Video Codec
Профиль формата : High@L4.1
Параметр CABAC формата : Да
Параметр ReFrames формата : 5 кадров
Идентификатор кодека : V_MPEG4/ISO/AVC
Продолжительность : 2 ч. 19 м.
Битрейт : 8571 Кбит/сек
Ширина : 1920 пикселей
Высота : 800 пикселей
Соотношение сторон : 2,40:1
Режим частоты кадров : Постоянный
Частота кадров : 23,976 кадра/сек
Цветовое пространство : YUV
Субдискретизация насыщенности : 4:2:0
Битовая глубина : 8 бит
Тип развёртки : Прогрессивная
Бит/(Пиксели*Кадры) : 0.233
Размер потока : 8,16 Гбайт (80%)
Библиотека кодирования : x264 core 142 r2431 ac76440
Настройки программы : cabac=1 / ref=5 / deblock=1:0:0 / analyse=0x3:0x133 / me=umh / subme=7 / psy=1 / psy_rd=1.00:0.00 / mixed_ref=1 / me_range=16 / chroma_me=1 / trellis=1 / 8x8dct=1 / cqm=0 / deadzone=21,11 / fast_pskip=0 / chroma_qp_offset=-2 / threads=18 / lookahead_threads=3 / sliced_threads=0 / nr=0 / decimate=1 / interlaced=0 / bluray_compat=0 / constrained_intra=0 / bframes=3 / b_pyramid=2 / b_adapt=1 / b_bias=0 / direct=1 / weightb=1 / open_gop=0 / weightp=2 / keyint=250 / keyint_min=23 / scenecut=40 / intra_refresh=0 / rc_lookahead=40 / rc=2pass / mbtree=1 / bitrate=8571 / ratetol=1.0 / qcomp=0.60 / qpmin=0 / qpmax=69 / qpstep=4 / cplxblur=20.0 / qblur=0.5 / ip_ratio=1.40 / aq=1:1.00
Язык : English
Default : Да
Forced : Нет

Аудио #1
Идентификатор : 2
Формат : AC-3
Формат/Информация : Audio Coding 3
Расширение режима : CM (complete main)
Параметр Endianness формата : Big
Идентификатор кодека : A_AC3
Продолжительность : 2 ч. 19 м.
Вид битрейта : Постоянный
Битрейт : 384 Кбит/сек
Каналы : 6 каналов
Расположение каналов : Front: L C R, Side: L R, LFE
Частота : 48,0 КГц
Битовая глубина : 16 бит
Метод сжатия : С потерями
Размер потока : 384 Мбайт (4%)
Заголовок : AC3
Язык : Russian
Default : Да
Forced : Нет

Аудио #2
Идентификатор : 3
Формат : DTS
Формат/Информация : Digital Theater Systems
Идентификатор кодека : A_DTS
Продолжительность : 2 ч. 19 м.
Вид битрейта : Постоянный
Битрейт : 1510 Кбит/сек
Каналы : 6 каналов
Расположение каналов : Front: L C R, Side: L R, LFE
Частота : 48,0 КГц
Битовая глубина : 24 бит
Метод сжатия : С потерями
Размер потока : 1,47 Гбайт (14%)
Заголовок : DTS
Язык : English
Default : Нет
Forced : Нет

Текст #1
Идентификатор : 4
Формат : UTF-8
Идентификатор кодека : S_TEXT/UTF8
Идентификатор кодека/Информация : UTF-8 Plain Text
Заголовок : Full (notabenoid)
Язык : Russian
Default : Нет
Forced : Нет

Текст #2
Идентификатор : 5
Формат : UTF-8
Идентификатор кодека : S_TEXT/UTF8
Идентификатор кодека/Информация : UTF-8 Plain Text
Заголовок : Full
Язык : English
Default : Нет
Forced : Нет

Текст #3
Идентификатор : 6
Формат : UTF-8
Идентификатор кодека : S_TEXT/UTF8
Идентификатор кодека/Информация : UTF-8 Plain Text
Заголовок : SDH
Язык : English
Default : Нет
Forced : Нет

Текст #4
Идентификатор : 7
Формат : UTF-8
Идентификатор кодека : S_TEXT/UTF8
Идентификатор кодека/Информация : UTF-8 Plain Text
Заголовок : SDH-COLORED
Язык : English
Default : Нет
Forced : Нет

Меню
00:00:00.000 : en:00:00:00.000
00:07:57.477 : en:00:07:57.477
00:15:29.595 : en:00:15:29.595
00:23:31.035 : en:00:23:31.035
00:33:56.618 : en:00:33:56.618
00:38:52.956 : en:00:38:52.956
00:44:24.328 : en:00:44:24.328
00:53:37.506 : en:00:53:37.506
01:00:02.682 : en:01:00:02.682
01:06:32.071 : en:01:06:32.071
01:13:19.603 : en:01:13:19.603
01:20:08.137 : en:01:20:08.137
01:28:41.441 : en:01:28:41.441
01:35:54.957 : en:01:35:54.957
01:46:19.373 : en:01:46:19.373
01:57:54.692 : en:01:57:54.692




Скриншоты

Статистика торрента
Раздают: 207 Качают: 64 Размер: 10.21GB Скачали: 18
Имя файла: 36215_-rutor.org-Dive.torrent
Похожие торренты
Отзывы пользователей
Добавить отзыв