6.25GB / Полет бабочки в 3Д / Flight of the Monarch Butterfly 3D (Timo Joh. Mayer) [2012, Документальный, BDrip-AVC] Half OverUnder / Вертик

Категория: фильмы » 3D
рейтинг из 5
  • Добавил: zlidny
  • Дата: 25/10/14, 11:43:41
  • Просмотры: 380
  • Отзывы: 0
?????
Название игры:
Год выхода игры:
Жанр игры: 3D

Год выпуска: 2012
Страна: Германия (Los Banditos Films)
Жанр: Документальный
Продолжительность: 00:39:43
Перевод: Профессиональный одноголосый закадровый
Режиссер: Тimо Jоh. Мауеr
Музыка: Антонио Вивальди
Интервью: Prof. Dr. Michael Boppré, Isabel Koch, Melquiades Moreno
Описание: Бабочка Монарх — одно самых прекрасных и таинственных насекомых на нашей планете. Жизнь этих грациозных и изящных существ поистине удивительна. Ежегодно миллионы особей отправляются в далекое путешествие, переживая серию ярких и необычных приключений. Теперь можно присоединиться к этому впечатляющему полету и понаблюдать за одним из самых красочных зрелищ на Земле в трехмерном формате.


pic.pic
pic pic


Качество: BDRip (by Ash61)
Контейнер: MKV
Формат 3D: Half OverUnder / Вертикальная анаморфная стереопара
Порядок ракурсов: левый ракурс первый
Видео кодек: x264
Аудио кодек: AC3


Видео: AVC / 23,976 fps / 1920х1080p / 20,8 Mbps
Аудио:
#1 - Русский / AC3 / 48 KHz / 5.1 ch / 640 Kbps (VO - BD 3D Rus)
#2 - Английский / AC3 / 48 KHz / 5.1 ch / 640 Kbps
Субтитры: Отсутствуют

MediaInfo
General
Unique ID : 234070860468635888788202689311275123171 (0xB018686E009C81488A038947C42281E3)
Complete name : E:\Downloads\TheIncredibleJourneyOfTheMonarchButterflies(3D-halfOU)2012(Ash61).mkv
Format : Matroska
Format version : Version 2
File size : 6.25 GiB
Duration : 39mn 44s
Overall bit rate : 22.5 Mbps
Movie name : The Incredible Journey of the Monarch Butterfly (3D) 2012 (by Ash61)
Encoded date : UTC 2013-08-24 06:35:44
Writing application : mkvmerge v5.8.0 ('No Sleep / Pillow') built on Sep 2 2012 15:37:04
Writing library : libebml v1.2.3 + libmatroska v1.3.0
Video
ID : 1
Format : AVC
Format/Info : Advanced Video Codec
Format profile : High@L4.1
Format settings, CABAC : Yes
Format settings, ReFrames : 4 frames
Codec ID : V_MPEG4/ISO/AVC
Duration : 39mn 44s
Bit rate : 20.8 Mbps
Width : 1 920 pixels
Height : 1 080 pixels
Display aspect ratio : 16:9
Frame rate mode : Constant
Frame rate : 23.976 fps
Color space : YUV
Chroma subsampling : 4:2:0
Bit depth : 8 bits
Scan type : Progressive
Bits/(Pixel*Frame) : 0.418
Stream size : 5.77 GiB (92%)
Title : BDRip by Ash61
Writing library : x264 core 119 r2106 07efeb4
Encoding settings : cabac=1 / ref=4 / deblock=1:-1:-1 / analyse=0x3:0x113 / me=umh / subme=9 / psy=1 / psy_rd=1.00:0.15 / mixed_ref=1 / me_range=32 / chroma_me=1 / trellis=2 / 8x8dct=1 / cqm=0 / deadzone=21,11 / fast_pskip=1 / chroma_qp_offset=-3 / threads=12 / sliced_threads=0 / nr=0 / decimate=1 / interlaced=0 / bluray_compat=0 / constrained_intra=0 / bframes=6 / b_pyramid=2 / b_adapt=2 / b_bias=0 / direct=3 / weightb=1 / open_gop=0 / weightp=2 / keyint=250 / keyint_min=23 / scenecut=40 / intra_refresh=0 / rc_lookahead=60 / rc=crf / mbtree=1 / crf=18.0 / qcomp=0.70 / qpmin=10 / qpmax=51 / qpstep=4 / vbv_maxrate=40000 / vbv_bufsize=30000 / crf_max=0.0 / nal_hrd=none / frame-packing=4 / ip_ratio=1.40 / aq=1:0.70
Language : German
Default : Yes
Forced : No
Audio #1
ID : 2
Format : AC-3
Format/Info : Audio Coding 3
Mode extension : CM (complete main)
Format settings, Endianness : Big
Codec ID : A_AC3
Duration : 39mn 44s
Bit rate mode : Constant
Bit rate : 640 Kbps
Channel(s) : 6 channels
Channel positions : Front: L C R, Side: L R, LFE
Sampling rate : 48.0 KHz
Bit depth : 16 bits
Compression mode : Lossy
Stream size : 182 MiB (3%)
Title : Одноголосый закадровый - BD 3D
Language : Russian
Default : Yes
Forced : No
Audio #2
ID : 3
Format : AC-3
Format/Info : Audio Coding 3
Mode extension : CM (complete main)
Format settings, Endianness : Big
Codec ID : A_AC3
Duration : 39mn 44s
Bit rate mode : Constant
Bit rate : 640 Kbps
Channel(s) : 6 channels
Channel positions : Front: L C R, Side: L R, LFE
Sampling rate : 48.0 KHz
Bit depth : 16 bits
Compression mode : Lossy
Stream size : 182 MiB (3%)
Language : English
Default : No
Forced : No
Menu
00:00:00.000 : :1
00:03:00.180 : :2
00:06:00.360 : :3
00:09:00.540 : :4
00:12:00.720 : :5
00:15:00.900 : :6
00:18:01.080 : :7
00:21:01.260 : :8
00:24:01.440 : :9
00:28:01.680 : :10
00:32:01.920 : :11
00:36:02.160 : :12
 
Скриншоты
pic pic pic pic pic pic pic pic pic pic
 
Для оценки 3Д - Анимированные скрины

pic
pic
pic
pic
pic
pic
pic
pic
pic
pic


Статистика торрента
Раздают: 51 Качают: 113 Размер: 6.25GB Скачали: 38
Имя файла: 38835_-rutracker.org-.torrent
Похожие торренты
Отзывы пользователей
Добавить отзыв