5.87GB / За гранью: Запредельные Гонщики в 3Д / Over the Edge: Ultimate Speed Riders 3D (Emmbé) [2012, Документальный, Спорт, Экстрим, BDrip

Категория: фильмы » 3D
рейтинг из 5
  • Добавил: zlidny
  • Дата: 09/10/14, 15:57:16
  • Просмотры: 262
  • Отзывы: 0
?????
Название игры:
Год выхода игры:
Жанр игры: 3D

pic


За гранью: Запредельные Гонщики
Over the Edge: Ultimate Speed Riders


Год выпуска: 2012
Страна: Франция (Universal, Cow Prod, Acro-Base, Les Arcs Paradiski, 3GO, Binocle 3D, Horus Video)
Жанр: Документальный, Спорт, Экстрим
Продолжительность: 0:54:52
Перевод: Субтитры
Режиссер: Emmbé
В ролях: François Bon, Jérôme Baud, Maxence Cavalade, Thibaud Duchosal, Fred Fugen, Vincent Reffet, Patrick Davies (рассказчик)
Описание: Съемки в течение недели во французском горнолыжном курорте Лез Арк знакомят нас с группой из трех быстроходных лыжников (Франсуа Боном, Жеромом Баудом и Максенсом Кэвалейдом) и их приключениях, сочетающих внетрассовое катание и парапланеризм. Это неделя, полная высотных аттракционов, вечеров отдыха с друзьями и тестирующих свои навыки против других экстремальных спортсменов, таких как Фред Фуген и Винсент Реффет...


pic.pic pic
За исходный BD 3D спасибо pic и BlurayDude!


Качество: BDRip (by Ash61)
Контейнер: MKV
Формат 3D: Half OverUnder / Вертикальная анаморфная стереопара
Порядок ракурсов: левый ракурс первый
Видео кодек: x264
Аудио кодек: AC3


Видео: AVC / 23,976 fps / 1920х1080p / 14.6 Mbps
Аудио: Английский / AC3 / 48 KHz / 2 ch / 448 Kbps
Субтитры (SRT):
Внешние (UTF-8): Русские Полные (включены по умолчанию)
Вшитые (softsub): Русские Полные (включены по умолчанию)

MediaInfo
General
Unique ID : 236685402903925325797782152924306249879 (0xB20FF352FF8D1B3285E0D14425C29897)
Complete name : E:\OverTheEdge.UltimateSpeedRiders(2012)3D-halfOU(Ash61)Eng+Subs.Rus\OverTheEdge.UltimateSpeedRiders(2012)3D-halfOU(Ash61)Eng+Subs.Rus.mkv
Format : Matroska
Format version : Version 2
File size : 5.87 GiB
Duration : 54mn 52s
Overall bit rate : 15.3 Mbps
Movie name : За гранью: Запредельные Гонщики / Over the Edge: Ultimate Speed Riders (2012) 3D
Encoded date : UTC 2014-05-16 19:53:50
Writing application : mkvmerge v5.8.0 ('No Sleep / Pillow') built on Sep 2 2012 15:37:04
Writing library : libebml v1.2.3 + libmatroska v1.3.0
Video
ID : 1
Format : AVC
Format/Info : Advanced Video Codec
Format profile : High@L4.1
Format settings, CABAC : Yes
Format settings, ReFrames : 4 frames
Codec ID : V_MPEG4/ISO/AVC
Duration : 54mn 52s
Bit rate : 14.6 Mbps
Width : 1 920 pixels
Height : 1 080 pixels
Display aspect ratio : 16:9
Frame rate mode : Constant
Frame rate : 23.976 fps
Color space : YUV
Chroma subsampling : 4:2:0
Bit depth : 8 bits
Scan type : Progressive
Bits/(Pixel*Frame) : 0.293
Stream size : 5.58 GiB (95%)
Title : BDRip by Ash61
Writing library : x264 core 129 r2245 bc13772
Encoding settings : cabac=1 / ref=4 / deblock=1:-3:-3 / analyse=0x3:0x113 / me=umh / subme=10 / psy=1 / psy_rd=1.00:0.15 / mixed_ref=1 / me_range=32 / chroma_me=1 / trellis=2 / 8x8dct=1 / cqm=0 / deadzone=21,11 / fast_pskip=1 / chroma_qp_offset=-3 / threads=12 / lookahead_threads=2 / sliced_threads=0 / nr=0 / decimate=1 / interlaced=0 / bluray_compat=0 / constrained_intra=0 / bframes=10 / b_pyramid=2 / b_adapt=2 / b_bias=0 / direct=3 / weightb=1 / open_gop=0 / weightp=2 / keyint=250 / keyint_min=23 / scenecut=40 / intra_refresh=0 / rc_lookahead=60 / rc=crf / mbtree=1 / crf=17.5 / qcomp=0.70 / qpmin=0 / qpmax=69 / qpstep=4 / vbv_maxrate=40000 / vbv_bufsize=30000 / crf_max=0.0 / nal_hrd=none / frame-packing=4 / ip_ratio=1.40 / aq=1:0.70
Language : French
Default : Yes
Forced : No
Audio
ID : 2
Format : AC-3
Format/Info : Audio Coding 3
Mode extension : CM (complete main)
Format settings, Endianness : Big
Codec ID : A_AC3
Duration : 54mn 52s
Bit rate mode : Constant
Bit rate : 448 Kbps
Channel(s) : 2 channels
Channel positions : Front: L R
Sampling rate : 48.0 KHz
Bit depth : 16 bits
Compression mode : Lossy
Stream size : 176 MiB (3%)
Language : English
Default : Yes
Forced : No
Text
ID : 3
Format : UTF-8
Codec ID : S_TEXT/UTF8
Codec ID/Info : UTF-8 Plain Text
Title : Полные
Language : Russian
Default : Yes
Forced : No
Menu
00:00:00.000 : :1
00:07:36.331 : :2
00:15:13.329 : :3
00:22:36.480 : :4
00:31:11.620 : :5
00:39:12.559 : :6
00:46:42.800 : :7
00:50:08.297 : :8
 
Скриншоты
pic pic pic pic pic pic pic pic pic pic pic pic
 
Для оценки 3Д - Анимированные скрины

pic
pic
pic
pic
pic
pic
pic
pic
pic
pic
pic
pic


Статистика торрента
Раздают: 108 Качают: 127 Размер: 5.87GB Скачали: 21
Имя файла: 38343_-rutracker.org-.torrent
Похожие торренты
Отзывы пользователей
Добавить отзыв