5.29GB / Boзврaщeниe Бурaтинo в 3Д / (Eкатеринa Миxaйловa) [2013, мультфильм, приключения, семейный, BDrip-AVC] Half OverUnder / Вертикальна

Категория: фильмы » 3D
рейтинг из 5
  • Добавил: zlidny
  • Дата: 09/10/14, 15:46:28
  • Просмотры: 237
  • Отзывы: 0
?????
Название игры:
Год выхода игры:
Жанр игры: 3D

pic

Boзврaщeниe Бурaтинo 3Д
«Трoгaтeльный мир зaбытых игрушeк»

Год выпуска: 2013
Страна: Россия
Жанр: мультфильм, приключения, семейный
Продолжительность: 01:16:36
Перевод: Не требуется
Русские субтитры: нет
Режиссер: Eкатеринa Миxaйловa
Роли озвучивали:г-н Баскара - Олег Табаков
Буратино - Оскар Кучера
Мальвина - Нонна Гришаева
Пьеро - Полина Кутепова
Варя - Лидия Аветисян
лиса Алиса - Ольга Прокофьева
Маредур - Борис Смолкин
кот Базилио - Леонид Якубович
кукла Света - Мадлен Джабраилова
зайка - Елена Симонова
медведь - Гоша Куценко
Матрена - Ольга Волкова


Описание: В современной нам Москве Карабас-Барабас, сменив имидж и имя, открывает фабрику-конвейер по производству игрушек. В цехах высотного здания из «сырья» — старых игрушек всех сортов и форм, — производятся две «инновационные» унифицированные модели: робот Зубастик для мальчиков и кукла Гламушка для девочек. Господин Баскара — так сейчас следует называть Карабаса, — уверен, что будущее (и огромные прибыли!) — именно за его моделями.



Премьера: 25 апреля 2013
бюджет: $1 500 000
сборы в России: $134 065
Релиз на DVD и Blu-Ray:27 мая 2013, «Новый Диск»
pic.pic.pic
Проверено на встроенном плейере ТВ LG LW 650S



Доп. информация по релизу: За источник спасибо сервису picа также avprohКачество: BDrip by (m@rik05)
Контейнер: MKV
Формат 3D: Anamorph OverUnder / Вертикальная анаморфная стереопара
Порядок ракурсов: левый ракурс первый
Видео кодек: x264
Аудио кодек: AC3
Видео: AVC / 23,976 fps / 1920х1080p / 9040 Kbps
Аудио: Русский / AC3 / 48 KHz /5.1 ch / 640 Kbps / оригинал (BD CEE)
Субтитры: нет

MediaInfo
Общее
Уникальный идентификатор : 202669288280824182500306365869258672420 (0x9878AF636B5A4CE7B8B8C277B5878924)
Полное имя : E:\3D мультфильмы\Возвращение Буратино 3Д (2013) BDRip.1080p.Half OU.x264.AC3.Rus.3D-RuGroup.(m@rik05).mkv
Формат : Matroska
Версия формата : Version 4 / Version 2
Размер файла : 5,29 Гбайт
Продолжительность : 1 ч. 16 м.
Общий поток : 9877 Кбит/сек
Название фильма : Возвращение Буратино 3Д (2013) 3D-RuGroup (m@rik05)
Дата кодирования : UTC 2013-05-23 12:44:09
Программа кодирования : mkvmerge v6.2.0 ('Promised Land') built on Apr 28 2013 12:22:01
Библиотека кодирования : libebml v1.3.0 + libmatroska v1.4.0
Видео
Идентификатор : 1
Формат : AVC
Формат/Информация : Advanced Video Codec
Профиль формата : High@L4.1
Параметр CABAC формата : Да
Параметр ReFrames формата : 4 кадра
Идентификатор кодека : V_MPEG4/ISO/AVC
Продолжительность : 1 ч. 16 м.
Битрейт : 9040 Кбит/сек
Ширина : 1920 пикселей
Высота : 1080 пикселей
Соотношение сторон : 16:9
Режим частоты кадров : Постоянный
Частота кадров : 23,976 кадра/сек
Цветовое пространство : YUV
Субдискретизация насыщенности : 4:2:0
Битовая глубина : 8 бит
Тип развёртки : Прогрессивная
Бит/(Пиксели*Кадры) : 0.182
Размер потока : 4,84 Гбайт (92%)
Заголовок : BDrip (by m@rik05)
Библиотека кодирования : x264 core 116 r2074 2641b9e
Настройки программы : cabac=1 / ref=4 / deblock=1:-3:-3 / analyse=0x3:0x113 / me=umh / subme=9 / psy=1 / psy_rd=1.00:0.15 / mixed_ref=1 / me_range=32 / chroma_me=1 / trellis=2 / 8x8dct=1 / cqm=0 / deadzone=21,11 / fast_pskip=1 / chroma_qp_offset=-3 / threads=12 / sliced_threads=0 / nr=0 / decimate=1 / interlaced=0 / bluray_compat=0 / constrained_intra=0 / bframes=6 / b_pyramid=2 / b_adapt=2 / b_bias=0 / direct=3 / weightb=1 / open_gop=0 / weightp=2 / keyint=250 / keyint_min=23 / scenecut=40 / intra_refresh=0 / rc_lookahead=60 / rc=crf / mbtree=1 / crf=17.0 / qcomp=0.60 / qpmin=10 / qpmax=51 / qpstep=4 / vbv_maxrate=40000 / vbv_bufsize=30000 / crf_max=0.0 / nal_hrd=none / frame-packing=4 / ip_ratio=1.40 / aq=1:0.70
Язык : Russian
Default : Да
Forced : Нет
Аудио
Идентификатор : 2
Формат : AC-3
Формат/Информация : Audio Coding 3
Расширение режима : CM (complete main)
Параметр Endianness формата : Big
Идентификатор кодека : A_AC3
Продолжительность : 1 ч. 16 м.
Вид битрейта : Постоянный
Битрейт : 640 Кбит/сек
Каналы : 6 каналов
Расположение каналов : Front: L C R, Side: L R, LFE
Частота : 48,0 КГц
Битовая глубина : 16 бит
Метод сжатия : С потерями
Размер потока : 351 Мбайт (6%)
Заголовок : AC3 / 5.1 ch / 640 kbps / оригинал (BD CEE)
Язык : Russian
Default : Да
Forced : Да
Меню
00:00:00.000 : en:00:00:00.000
00:04:10.417 : en:00:04:10.417
00:11:21.764 : en:00:11:21.764
00:19:11.275 : en:00:19:11.275
00:26:15.199 : en:00:26:15.199
00:32:20.021 : en:00:32:20.021
00:39:59.731 : en:00:39:59.731
00:47:29.764 : en:00:47:29.764
00:54:50.871 : en:00:54:50.871
01:02:52.143 : en:01:02:52.143
01:08:43.119 : en:01:08:43.119
01:13:06.716 : en:01:13:06.716
 
Log x264
pic
 
Скриншоты

pic pic pic pic pic pic pic pic


Статистика торрента
Раздают: 168 Качают: 88 Размер: 5.29GB Скачали: 19
Имя файла: 38340_-rutracker.org-.torrent
Похожие торренты
Отзывы пользователей
Добавить отзыв