4.82GB / Букашки. Приключение в Долине муравьев в 3Д / Minuscule - La vallée des fourmis perdues 3D (Х.Жиро, Т.Забо / H.Giraud, T.Szabo) [20

Категория: фильмы » 3D
рейтинг из 5
  • Добавил: zlidny
  • Дата: 26/10/14, 10:58:20
  • Просмотры: 291
  • Отзывы: 0
?????
Название игры:
Год выхода игры:
Жанр игры: 3D

Год выпуска: 2013
Страна: Франция, Бельгия (Futurikon)
Жанр: Мультфильм, Приключения, Семейный
Продолжительность: 1:28:51
Перевод: Не требуется
Режиссеры: Хелен Жиро, Томас Забо / Hélène Giraud, Thomas Szabo


Описание: Активные и любознательные черные муравьишки обнаруживают брошенную после пикника коробку с сахаром. Дружный отряд муравьишек вместе с Божьей коровкой решают переправить лакомство в муравейник. Но сладкая коробка уже успела нарушить спокойствие во всей долине, и свои планы на лакомство появились у других обитателей леса, в частности — у злобных красных муравьев-захватчиков. А, стало быть, на пути к заветной цели черным муравьишкам предстоит преодолеть массу опасностей и приключений.


Премьера: 17 ноября 2013 (29 мая 2014)
Релиз на DVD (Россия): 7 августа 2014
Бюджет: $19 700 000
pic.pic.pic pic


Качество: BDRip (by Ash61)
Контейнер: MKV
Формат 3D: Half OverUnder / Вертикальная анаморфная стереопара
Порядок ракурсов: левый ракурс первый
Видео кодек: x264
Аудио кодек: AC3


Видео: AVC / 23,976 fps / 1920х1080p / ~7.0 Mbps
Аудио: AC3 / 48 KHz / 5.1 ch / 640 Kbps (Original - BD 3D)
Субтитры: Внешние (SRT UTF-8) Русские Форсированные (включены по умолчанию)

MediaInfo
General
Unique ID : 237944171855701990116254082572386430795 (0xB302616CD59E75C18C07CFA11BC5EF4B)
Complete name : E:\Minuscule.ValleyOfTheLostAnts(2013)3D-halfOU(Ash61)\Minuscule.ValleyOfTheLostAnts(2013)3D-halfOU(Ash61).mkv
Format : Matroska
Format version : Version 2
File size : 4.82 GiB
Duration : 1h 28mn
Overall bit rate : 7 766 Kbps
Movie name : Букашки. Приключение в Долине муравьев / Minuscule - La vallée des fourmis perdues / Minuscule. The Valley Of The Lost Ants (2013) 3D
Encoded date : UTC 2014-10-02 15:16:22
Writing application : mkvmerge v5.8.0 ('No Sleep / Pillow') built on Sep 2 2012 15:37:04
Writing library : libebml v1.2.3 + libmatroska v1.3.0
Video
ID : 1
Format : AVC
Format/Info : Advanced Video Codec
Format profile : High@L4.1
Format settings, CABAC : Yes
Format settings, ReFrames : 4 frames
Codec ID : V_MPEG4/ISO/AVC
Duration : 1h 28mn
Bit rate : 6 971 Kbps
Width : 1 920 pixels
Height : 1 080 pixels
Display aspect ratio : 16:9
Frame rate mode : Constant
Frame rate : 23.976 fps
Color space : YUV
Chroma subsampling : 4:2:0
Bit depth : 8 bits
Scan type : Progressive
Bits/(Pixel*Frame) : 0.140
Stream size : 4.33 GiB (90%)
Title : BDRip by Ash61
Writing library : x264 core 138 r2358 9e941d1
Encoding settings : cabac=1 / ref=4 / deblock=1:-3:-3 / analyse=0x3:0x113 / me=umh / subme=10 / psy=1 / psy_rd=1.00:0.15 / mixed_ref=1 / me_range=32 / chroma_me=1 / trellis=2 / 8x8dct=1 / cqm=0 / deadzone=21,11 / fast_pskip=1 / chroma_qp_offset=-3 / threads=12 / lookahead_threads=3 / sliced_threads=0 / nr=0 / decimate=1 / interlaced=0 / bluray_compat=0 / constrained_intra=0 / bframes=10 / b_pyramid=2 / b_adapt=2 / b_bias=0 / direct=3 / weightb=1 / open_gop=0 / weightp=2 / keyint=250 / keyint_min=23 / scenecut=40 / intra_refresh=0 / rc_lookahead=60 / rc=crf / mbtree=1 / crf=17.0 / qcomp=0.70 / qpmin=0 / qpmax=69 / qpstep=4 / vbv_maxrate=40000 / vbv_bufsize=30000 / crf_max=0.0 / nal_hrd=none / frame-packing=4 / ip_ratio=1.40 / aq=1:0.70
Default : Yes
Forced : No
Audio
ID : 2
Format : AC-3
Format/Info : Audio Coding 3
Mode extension : CM (complete main)
Format settings, Endianness : Big
Codec ID : A_AC3
Duration : 1h 28mn
Bit rate mode : Constant
Bit rate : 640 Kbps
Channel(s) : 6 channels
Channel positions : Front: L C R, Side: L R, LFE
Sampling rate : 48.0 KHz
Bit depth : 16 bits
Compression mode : Lossy
Stream size : 407 MiB (8%)
Title : Original - BD 3D
Default : Yes
Forced : No
Text
ID : 3
Format : UTF-8
Codec ID : S_TEXT/UTF8
Codec ID/Info : UTF-8 Plain Text
Title : Форсированные
Language : Russian
Default : Yes
Forced : No
Menu
00:00:00.000 : :1
00:07:47.342 : :2
00:12:19.280 : :3
00:20:07.415 : :4
00:26:19.203 : :5
00:32:07.801 : :6
00:37:00.635 : :7
00:45:58.547 : :8
00:53:51.061 : :9
01:00:25.413 : :10
01:08:05.665 : :11
01:13:59.602 : :12
01:19:39.024 : :13
01:23:12.779 : :14
 
Скриншоты
pic pic pic pic pic pic pic pic pic pic pic pic
 
Для оценки 3Д - Анимированные скрины

pic
pic
pic
pic
pic
pic
pic
pic
pic
pic
pic
pic


Статистика торрента
Раздают: 285 Качают: 17 Размер: 4.82GB Скачали: 22
Имя файла: 38876_-rutracker.org-.torrent
Похожие торренты
Отзывы пользователей
Добавить отзыв