4.22GB / Территория тьмы 3Д / Dark Country 3D (Томас Джейн / Thomas Jane) [2009, Триллер, детектив, BDrip-AVC] Half OverUnder / Вертикальная

Категория: фильмы » 3D
рейтинг из 5
  • Добавил: zlidny
  • Дата: 16/08/14, 10:07:55
  • Просмотры: 185
  • Отзывы: 0
?????
Название игры:
Год выхода игры:
Жанр игры: 3D

Год выпуска: 2009
Страна: США
Жанр: Триллер, детектив
Продолжительность: 01:28:07
Перевод: Профессиональный (дублированный)
Русские субтитры: нет
Режиссер на русском: Томас Джейн
Режиссер на английском: Thomas Jane
В ролях: Томас Джейн, Лорен Джерман, Рон Перлман , Крис Браунинг, Кон Шелл, Хезер Хэйс, Никки Келли, Джонатан Ланд
Роли озвучивали: Алексей Горбунов, Татьяна Шитова
Описание: Парочка молодоженов, Джина и Ричард, во время ночной поездки через пустыню сбивают мужчину. Подобрав раненого, влюбленные едут за помощью, но очнувшийся пассажир набрасывается на них…
Качество: BDrip
Контейнер: MKV
Формат 3D: Half OverUnder / Вертикальная анаморфная стереопара
Порядок ракурсов: левый ракурс первый
Видео кодек: x264
Аудио кодек: AC3
Видео: AVC / 1920х1080 / 23,976 кадр/сек / 5435 Kbps
Аудио: Русский / AC3 / 48 KHz / 5.1 ch / 640 Kbps
Аудио 2: Английский / AC3 / 48 KHz / 5.1 ch / 640 Kbps

MediaInfo
General
Unique ID : 207254498300326495120819253081954940032 (0x9BEBC3B23EC280DA98CF39ADB7517480)
Complete name : G:\фильмы\Dark Country 3D.mkv
Format : Matroska
Format version : Version 2
File size : 4.22 GiB
Duration : 1h 28mn
Overall bit rate : 6 852 Kbps
Encoded date : UTC 2012-07-22 14:49:22
Writing application : mkvmerge v3.4.0 ('Rapunzel') сборка от May 15 2010 09:38:20
Writing library : libebml v0.8.0 + libmatroska v0.9.0
Video
ID : 1
Format : AVC
Format/Info : Advanced Video Codec
Format profile : High@L4.1
Format settings, CABAC : Yes
Format settings, ReFrames : 4 frames
Codec ID : V_MPEG4/ISO/AVC
Duration : 1h 28mn
Bit rate : 5 435 Kbps
Width : 1 920 pixels
Height : 1 080 pixels
Display aspect ratio : 16:9
Frame rate : 23.976 fps
Color space : YUV
Chroma subsampling : 4:2:0
Bit depth : 8 bits
Scan type : Progressive
Bits/(Pixel*Frame) : 0.109
Stream size : 3.35 GiB (79%)
Title : Rip by SeRoGa00
Writing library : x264 core 125 r2200 999b753
Encoding settings : cabac=1 / ref=4 / deblock=1:-1:-1 / analyse=0x3:0x133 / me=umh / subme=9 / psy=1 / psy_rd=1.00:0.15 / mixed_ref=1 / me_range=16 / chroma_me=1 / trellis=2 / 8x8dct=1 / cqm=0 / deadzone=21,11 / fast_pskip=1 / chroma_qp_offset=-3 / threads=6 / lookahead_threads=1 / sliced_threads=0 / nr=0 / decimate=1 / interlaced=0 / bluray_compat=0 / constrained_intra=0 / bframes=6 / b_pyramid=2 / b_adapt=2 / b_bias=0 / direct=3 / weightb=1 / open_gop=0 / weightp=2 / keyint=250 / keyint_min=23 / scenecut=40 / intra_refresh=0 / rc_lookahead=60 / rc=crf / mbtree=1 / crf=18.0 / qcomp=0.60 / qpmin=10 / qpmax=69 / qpstep=4 / vbv_maxrate=40000 / vbv_bufsize=40000 / crf_max=0.0 / nal_hrd=none / ip_ratio=1.40 / aq=1:1.00
Language : English
Default : Yes
Forced : No
Audio #1
ID : 2
Format : AC-3
Format/Info : Audio Coding 3
Mode extension : CM (complete main)
Format settings, Endianness : Big
Codec ID : A_AC3
Duration : 1h 28mn
Bit rate mode : Constant
Bit rate : 640 Kbps
Channel(s) : 6 channels
Channel positions : Front: L C R, Side: L R, LFE
Sampling rate : 48.0 KHz
Bit depth : 16 bits
Compression mode : Lossy
Stream size : 403 MiB (9%)
Language : Russian
Default : Yes
Forced : No
Audio #2
ID : 3
Format : AC-3
Format/Info : Audio Coding 3
Mode extension : CM (complete main)
Format settings, Endianness : Big
Codec ID : A_AC3
Duration : 1h 28mn
Bit rate mode : Constant
Bit rate : 640 Kbps
Channel(s) : 6 channels
Channel positions : Front: L C R, Side: L R, LFE
Sampling rate : 48.0 KHz
Bit depth : 16 bits
Compression mode : Lossy
Stream size : 403 MiB (9%)
Language : English
Default : No
Forced : No
 
Скриншоты

pic pic pic
pic pic pic


Статистика торрента
Раздают: 201 Качают: 65 Размер: 4.22GB Скачали: 25
Имя файла: 37048_-rutracker.org-.torrent
Похожие торренты
Отзывы пользователей
Добавить отзыв