4.16GB / Kорoль cафaри / Kумбa в 3Д / Кhumbа 3D (Энтони Силверстон / Anthony Silverston) [2013, Мультфильм, Приключения, Семейный, BDrip-AVC

Категория: фильмы » 3D
рейтинг из 5
  • Добавил: zlidny
  • Дата: 09/09/14, 16:55:41
  • Просмотры: 234
  • Отзывы: 0
?????
Название игры:
Год выхода игры:
Жанр игры: 3D

pic


Король сафари (Кумба)
Khumba


Год выпуска: 2013
Страна: ЮАР (Millennium Entertainment, CMG, Triggerfish Animation Studios)
Жанр: Мультфильм, Приключения, Семейный
Продолжительность: 01:25:18
Перевод: Профессиональный дублированный (лицензия R5)
Режиссер: Энтони Силверстон / Anthony Silverston
Роли озвучивали (дублировали): Джейк Т. Остин (Оскар Кучера)(Khumba), Лиам Нисон (Phango), Стив Бушеми (Skalk), Анна-София Робб (Tombi), Лоренс Фишбёрн (Seko), Грег Эллис (Thabo), Ричард Э. Грант (Bradley), Кэтрин Тейт (Nora), Чарльз Адлер (Wild Dog #1), Ди Брэдли Бейкер (Meerkat Father), Джефф Беннетт (Rabbit)


Описание: Зебра Кумба с самого рождения был посмешищем всего стада из-за того, что родился наполовину полосатым, а наполовину белым. Хуже того, когда началась Великая Засуха, сородичи решили, что он проклят, и в нем причина всех бед. Стадо изгнало Кумбу, и даже отец отвернулся от него! Отважная полуполосатая зебра отправляется в опасные и веселые приключения, чтобы найти недостающие полоски и заслужить уважение семьи…


Премьера: 8 сентября 2013 (24 июля 2014)
Релиз на DVD (Россия): 2 сентября 2014
Бюджет: $20 000 000
Кассовые сборы: $11 601 029
pic.pic.pic pic
За исходный BD 3D спасибо pic и АДмин!


Качество: BDRip (by Ash61)
Контейнер: MKV
Формат 3D: Half OverUnder / Вертикальная анаморфная стереопара
Порядок ракурсов: левый ракурс первый
Видео кодек: x264
Аудио кодек: AC3


Видео: AVC / 23,976 fps / 1920х1080p / ~5.3 Mbps
Аудио:
#1 - Русский / AC3 / 48 KHz / 5.1 ch / 448 Kbps (Дубляж - R5)
#2 - Русский / AC3 / 48 KHz / 5.1 ch / 448 Kbps (Дубляж - Неофициальный)
#3 - Английский / AC3 / 48 KHz / 5.1 ch / 640 Kbps
Субтитры: Внешние (SRT UTF-8) English Full

MediaInfo
General
Unique ID : 214320648980202977323284748573136337866 (0xA13CA7D297DEB98FB365EF9F8DE33BCA)
Complete name : E:\Khumba(2013)3D-halfOU(Ash61)R5\Khumba(2013)3D-halfOU(Ash61)R5.mkv
Format : Matroska
Format version : Version 2
File size : 4.16 GiB
Duration : 1h 25mn
Overall bit rate : 6 990 Kbps
Movie name : Кумба / Khumba (2013) 3D
Encoded date : UTC 2014-09-07 10:15:08
Writing application : mkvmerge v5.8.0 ('No Sleep / Pillow') built on Sep 2 2012 15:37:04
Writing library : libebml v1.2.3 + libmatroska v1.3.0
Video
ID : 1
Format : AVC
Format/Info : Advanced Video Codec
Format profile : High@L4.1
Format settings, CABAC : Yes
Format settings, ReFrames : 4 frames
Codec ID : V_MPEG4/ISO/AVC
Duration : 1h 25mn
Bit rate : 5 315 Kbps
Width : 1 920 pixels
Height : 1 080 pixels
Display aspect ratio : 16:9
Frame rate mode : Constant
Frame rate : 23.976 fps
Color space : YUV
Chroma subsampling : 4:2:0
Bit depth : 8 bits
Scan type : Progressive
Bits/(Pixel*Frame) : 0.107
Stream size : 3.17 GiB (76%)
Title : BDRip by Ash61
Writing library : x264 core 129 r2245 bc13772
Encoding settings : cabac=1 / ref=4 / deblock=1:-3:-3 / analyse=0x3:0x113 / me=umh / subme=10 / psy=1 / psy_rd=1.00:0.15 / mixed_ref=1 / me_range=32 / chroma_me=1 / trellis=2 / 8x8dct=1 / cqm=0 / deadzone=21,11 / fast_pskip=1 / chroma_qp_offset=-3 / threads=12 / lookahead_threads=2 / sliced_threads=0 / nr=0 / decimate=1 / interlaced=0 / bluray_compat=0 / constrained_intra=0 / bframes=9 / b_pyramid=2 / b_adapt=2 / b_bias=0 / direct=3 / weightb=1 / open_gop=0 / weightp=2 / keyint=250 / keyint_min=23 / scenecut=40 / intra_refresh=0 / rc_lookahead=60 / rc=crf / mbtree=1 / crf=17.0 / qcomp=0.70 / qpmin=0 / qpmax=69 / qpstep=4 / vbv_maxrate=40000 / vbv_bufsize=30000 / crf_max=0.0 / nal_hrd=none / frame-packing=4 / ip_ratio=1.40 / aq=1:0.70
Language : English
Default : Yes
Forced : No
Audio #1
ID : 2
Format : AC-3
Format/Info : Audio Coding 3
Mode extension : CM (complete main)
Format settings, Endianness : Big
Codec ID : A_AC3
Duration : 1h 25mn
Bit rate mode : Constant
Bit rate : 448 Kbps
Channel(s) : 6 channels
Channel positions : Front: L C R, Side: L R, LFE
Sampling rate : 48.0 KHz
Bit depth : 16 bits
Compression mode : Lossy
Stream size : 273 MiB (6%)
Title : Дубляж - Лицензия (R5)
Language : Russian
Default : Yes
Forced : No
Audio #2
ID : 3
Format : AC-3
Format/Info : Audio Coding 3
Mode extension : CM (complete main)
Format settings, Endianness : Big
Codec ID : A_AC3
Duration : 1h 25mn
Bit rate mode : Constant
Bit rate : 448 Kbps
Channel(s) : 6 channels
Channel positions : Front: L C R, Side: L R, LFE
Sampling rate : 48.0 KHz
Bit depth : 16 bits
Compression mode : Lossy
Stream size : 273 MiB (6%)
Title : Дубляж (не официальный)
Language : Russian
Default : No
Forced : No
Audio #3
ID : 4
Format : AC-3
Format/Info : Audio Coding 3
Mode extension : CM (complete main)
Format settings, Endianness : Big
Codec ID : A_AC3
Duration : 1h 25mn
Bit rate mode : Constant
Bit rate : 640 Kbps
Channel(s) : 6 channels
Channel positions : Front: L C R, Side: L R, LFE
Sampling rate : 48.0 KHz
Bit depth : 16 bits
Compression mode : Lossy
Stream size : 390 MiB (9%)
Title : Original - BD 3D
Language : English
Default : No
Forced : No
Menu
00:00:00.000 : :1
00:07:02.881 : :2
00:14:33.623 : :3
00:24:04.485 : :4
00:30:51.933 : :5
00:38:02.489 : :6
00:45:18.507 : :7
00:50:56.345 : :8
00:55:26.865 : :9
01:00:10.857 : :10
01:09:02.305 : :11
01:19:12.790 : :12
 
Скриншоты
pic pic pic pic pic pic pic pic pic pic pic pic
 
Для оценки 3Д - Анимированные скрины

pic
pic
pic
pic
pic
pic
pic
pic
pic
pic
pic
pic


Статистика торрента
Раздают: 209 Качают: 60 Размер: 4.16GB Скачали: 15
Имя файла: 37594_-rutracker.org-.torrent
Похожие торренты
Отзывы пользователей
Добавить отзыв