3.59GB / С.Петербург (канал Грибоедова) в 3Д / 3D (КИВ) [2014, Документальное кино-путеводитель, HDTV ] Half SideBySide / Горизонтальная ана

Категория: фильмы » 3D
рейтинг из 5
  • Добавил: zlidny
  • Дата: 05/09/14, 10:44:33
  • Просмотры: 227
  • Отзывы: 0
?????
Название игры:
Год выхода игры:
Жанр игры: 3D

Год выпуска: 2014
Жанр: Документальное кино-путеводитель
Продолжительность: 0:31:00
Русские субтитры: нет
Режиссер на русском: КИВ
Описание:


Санкт-Петербург является самым северным из городов мира с населением свыше 4 миллионов человек. Город расположен в северо-западной части России, в пределах Приневской низменности, на прилегающем к устью реки Невы побережье Невской губы Финского залива,основан 16 мая 1703 года императором Петром I.
Высокоширотным положением города объясняется явление белых ночей.
Канал Грибоедова по праву можно отнести к самым известным достопримечательностям в Санкт-Петербурге. Он расположен в центре Северной столицы и пересекает многие центральные магистрали, в том числе Невский проспект рядом с Казанским собором. Набережные канала Грибоедова – излюбленное место прогулок туристов, ведь здесь расположены старинные здания и храмы и перекинуты удивительно красивые мосты.



Качество: HDTV
Контейнер: MPEG-Video
Формат 3D: AnamorphSideBySide / Горизонтальная анаморфная стереопара
Порядок ракурсов: левый ракурс первый
Видео кодек: MPEG-PS
Аудио кодек: AC-3
pic Видео: MPEG-VIDEO 15,8 Мбит/сек, 1920х1080, 16:9, 25 кадров/сек. (PAL)
pic Аудио: AC-3 448 Кбит/сек, 48,0 Кгц,16 Бит, 6 Каналов.

MediaInfo
General
Complete name : F:\Канал Грибоедова-3.mpg
Format : MPEG-PS
File size : 3.59 GiB
Duration : 31mn 1s
Overall bit rate mode : Variable
Overall bit rate : 16.6 Mbps
Video
ID : 224 (0xE0)
Format : MPEG Video
Format version : Version 2
Format profile : Main@High
Format settings, BVOP : No
Format settings, Matrix : Custom
Format settings, GOP : M=3, N=15
Duration : 31mn 1s
Bit rate mode : Variable
Bit rate : 15.8 Mbps
Maximum bit rate : 18.0 Mbps
Width : 1 920 pixels
Height : 1 080 pixels
Display aspect ratio : 16:9
Frame rate : 25.000 fps
Color space : YUV
Chroma subsampling : 4:2:0
Bit depth : 8 bits
Scan type : Interlaced
Scan order : Top Field First
Compression mode : Lossy
Bits/(Pixel*Frame) : 0.305
Time code of first frame : 00:00:00:00
Time code source : Group of pictures header
Stream size : 3.42 GiB (95%)
Audio
ID : 189 (0xBD)-128 (0x80)
Format : AC-3
Format/Info : Audio Coding 3
Mode extension : CM (complete main)
Format settings, Endianness : Big
Muxing mode : DVD-Video
Duration : 31mn 1s
Bit rate mode : Constant
Bit rate : 448 Kbps
Channel(s) : 6 channels
Channel positions : Front: L C R, Side: L R, LFE
Sampling rate : 48.0 KHz
Bit depth : 16 bits
Compression mode : Lossy
Stream size : 99.4 MiB (3%)
 
Скриншоты

picpicpicpicpicpicpicpic


Статистика торрента
Раздают: 329 Качают: 144 Размер: 3.59GB Скачали: 27
Имя файла: 37385_-rutracker.org-.torrent
Похожие торренты
Отзывы пользователей
Добавить отзыв