2.09GB / [Экстрим] X-Games 3D - The Movie / Экстремальные Игры в 3D - Фильм [2009, FMX/Skateboard/BMX/Rally/Snowboard, HDRip/720p, 3DTV, EN]

Категория: фильмы » 3D
рейтинг из 5
  • Добавил: zlidny
  • Дата: 09/10/14, 15:59:06
  • Просмотры: 386
  • Отзывы: 0
?????
Название игры:
Год выхода игры:
Жанр игры: 3D

Год выпуска: 2009
Вид спорта: FMX, Skateboard, BMX, Rally, Snowboard
Участники: Shaun White, Travis Pastrana, Ricky Carmichael, Danny Way, Bob Burnquist, Kyle Loza, Kristos Andrews, Jake Brown, Brian Deegan, Tony Hawk, Emile Hirsch, Mat Hoffman, Bucky Lasek, Sal Masekela, Dave Mirra, Paul Page
Продолжительность: 01:31:37
Комментарий: Профессиональный (многоголосый)
Язык комментариев: Английский


Описание: Генеральный режиссёр Стив Лоуренс (Steve Lawrence) решил снять фильм про экстремальные игры, где главными героями становятся всемирно известные: сноубордист, мотоциклисты, гонщик, скейтбордисты. И все это в полном 3D! Ощутите захватывающие дух виражи и трюки сидя в комфортном кресле у себя дома.


Follows six extreme sports stars as they prepare for and then compete in the 2008 Summer X-Games in Los Angeles. Kyle Loza practices a new motocross trick, landing in a pit of foam. Can he do it in front of thousands and land safely on dirt? Travis Pastrana shifts from a bike to a rally car - in part because he's broken so many bones. Shaun White finishes his snowboard season and jumps immediately onto his skateboard. Retired motocross champion Ricky Cunningham takes up a new event. In the finale, after practicing together as friends and competitors, Bob Burnquist and Danny Way face off on the mega ramp.


Автор рипа: ?


Качество: HDRip [3DTV]
Формат: MP4
Видео кодек: H.264
Аудио кодек: AAC
Видео: 1280x720 (16:9), 29.97fps, 3061kbps
Аудио: 48000Hz, 2 channels, stereo, 192kbps


Официальный сайт | Трейлер | IMDb | SATRip |


Отчёт MediaInfo
Общее
Полное имя : X-Games.3D.The.Movie.2009.HDRip.720p.mp4
Формат : MPEG-4
Профиль формата : 3GPP Media Release 4
Идентификатор кодека : 3gp4
Размер файла : 2,09 Гбайт
Продолжительность : 1 ч. 31 м.
Общий поток : 3259 Кбит/сек
Дата кодирования : UTC 2011-08-04 03:06:26
Дата пометки : UTC 2011-08-04 03:06:26
Xtra : WM/MediaClassPrimaryID
Видео
Идентификатор : 1
Формат : AVC
Формат/Информация : Advanced Video Codec
Профиль формата : Main@L4.0
Параметр CABAC формата : Да
Параметр ReFrames формата : 1 кадр
Идентификатор кодека : avc1
Идентификатор кодека/Информация : Advanced Video Coding
Продолжительность : 1 ч. 31 м.
Битрейт : 3061 Кбит/сек
Ширина : 1280 пикселей
Высота : 720 пикселей
Соотношение сторон : 16:9
Режим частоты кадров : Постоянный
Частота кадров : 29,970 кадров/сек
Цветовое пространство : YUV
Субдискретизация насыщенности : 4:2:0
Битовая глубина : 8 бит
Тип развёртки : Прогрессивная
Бит/(Пиксели*Кадры) : 0.111
Размер потока : 1,96 Гбайт (94%)
Язык : English
Дата кодирования : UTC 2011-08-04 03:06:26
Дата пометки : UTC 2011-08-04 03:06:26
Material_Duration : 5497698
Material_StreamSize : 2103244899
Material_FrameCount : 164766
Аудио
Идентификатор : 2
Формат : AAC
Формат/Информация : Advanced Audio Codec
Профиль формата : LC
Идентификатор кодека : 40
Продолжительность : 1 ч. 31 м.
Вид битрейта : Постоянный
Битрейт : 192 Кбит/сек
Каналы : 2 канала
Расположение каналов : Front: L R
Частота : 48,0 КГц
Метод сжатия : С потерями
Размер потока : 124 Мбайт (6%)
Язык : English
Дата кодирования : UTC 2011-08-04 03:06:27
Дата пометки : UTC 2011-08-04 03:06:27
Material_Duration : 5497600
Material_StreamSize : 130139498
 
Скриншоты
pic pic pic
pic pic pic
pic pic pic
pic pic pic

Статистика торрента
Раздают: 108 Качают: 16 Размер: 2.09GB Скачали: 36
Имя файла: 38344_-rutracker.org-.torrent
Похожие торренты
Отзывы пользователей
Добавить отзыв