21.02GB / Вселенная (с06э04-э07) 3Д / The Universe (s06e04-e07) 3D (Дж. Г. Голдин, Л. Верклан, Дж. Хенсе, Д. Снайдер / J. G. Goldin, L. Verk

Категория: фильмы » 3D
рейтинг из 5
  • Добавил: zlidny
  • Дата: 09/09/14, 16:52:42
  • Просмотры: 282
  • Отзывы: 0
?????
Название игры:
Год выхода игры:
Жанр игры: 3D

pic

 

picpic


Вселенная (Сезон 6, Эпизоды 4 - 7)
The Universe (S06, E04 - E07)
Год выпуска: 2011
Страна: США (History Channel, A&E Television Networks)
Жанр: Документальный, История
Продолжительность: 0:44:05 + 0:44:04 + 0:44:03 + 0:44:05
Перевод: Профессиональный одноголосый закадровый (Лицензия [Кармен Видео])
Режиссеры: Джеймс Грант Голдин, Лаура Верклан, Джеймс Хенсе, Дэниэл Снайдер / James Grant Goldin, Laura Verklan, James Hense, Daniel Snyder
В фильмах снимались: Alex Filippenko, Jenn Jackson, Lucinda Land, Don Lusko, Arden Sellers, Доктор Кевин Р. Грейзер, Erik Thompson, Роберт Р. Каргилл, Laura Danly, Paul Davies, Clifford Johnson, Leonard Mlodinow, Dana Smelzer, Robert Spitzer



Описание:В этом сериале с помощью современной компьютерной графики и, основываясь на передовых исследованиях в области космоса, создатели фильма смогли воссоздать то, что происходит на других планетах, в других галактиках, вообразить какие формы жизни могли бы развиться в других атмосферах. Вы сможете увидеть космические бедствия, параллельные вселенные, скорость света и узнать многое другое о тайнах космоса.


Season 6, Episode 4: Остаться в живых на Марсе / Crash Landing on Mars (22.11.2011г.)Что произойдет, если первый пилотируемый полет на Марс потерпит фиаско в сотнях километров от ракеты, которая сможет вернуть космонавтов домой? Смогут ли они выжить и добраться до своего корабля? Фильм покажет, как пережить песчаные бури и космическую радиацию, а также добыть воду из марсианского грунта. Эта драматическое представление самого ближайшего будущего, где выживание может зависеть от человеческой изобретательности и бытовых навыков.Season 6, Episode 5: Конец света / Worst Days on Planet Earth (29.11.2011г.)Земля может показаться самой гостеприимной планетой Солнечной системы. Но взгляните ещё раз! Поразительные открытия проливают свет на существование голубой планеты: на ней больше хаоса и разрушений, чем полагали ученые. Фильм покажет Землю, какой она была миллиарды лет назад. Зрители увидят, как другая планета врезается в Землю, как весь Земной шар замерзает, превращаясь в снежный ком, а также смогут почувствовать жар огромных вулканов, сжигающих всё вокруг. Фильм объяснит возникновение и последствия космических вспышек, уничтожающих озоновый слой, а также расскажет об астероиде, размером с Эверест, упавшем в океан. Зрители узнают, как эти события приближают нас к полному исчезновению. Как наша планета и жизнь на ней стали такими, какими мы их знаем сегодня? Позади ли худшие дни или они ждут нас в отдаленном будущем? Приготовьтесь, мы переживем самые страшные дни на Земле.Season 6, Episode 6: НЛО. Внеземные технологии / UFO: The Real Deal (13.12.2011г.)Многие утверждают, что летающие тарелки и другие внеземные космические корабли постоянно посещают Землю. Если бы это было правдой, какие технологии должны быть у такого инопланетного космического корабля? Совпадают ли свидетельства очевидцев НЛО с современными теориями о том, как межзвездные путешествия возможны? Авторы, астрономы и физики-теоретики приводят свои доводы с помощью чертежей устройств, подавляющих инерцию, атомных аппаратов, систем антиматерии и даже гиперпространственных двигателей. На основе теории Эйнштейна и бесчисленных научных исследований мы узнаем, как эти пришельцы могут преодолевать огромные расстояния между звездами. И если они могут пережить такие опасные путешествия, состоят ли они из плоти и крови или они - интеллектуальные машины?Season 6, Episode 7: Тайна сотворения мира / God and the Universe (20.12.2011г.)Рассказ о попытках найти научные доказательства существования Бога. С самого зарождения цивилизации люди задавались вопросом - кто создал или что создало Вселенную. Религия предлагает духовный ответ, а последние открытия в физике приводят доказательства существования превосходящего разума, проще говоря, законы физики сами по себе привели к появлению Вселенной, в которой мы живем. Эпизод рассказывает о попытках найти научные доказательства существования Бога. Авторы фильма обращаются к физикам и богословам с вопросом о том, является ли тот факт, что Вселенная сама поддерживает жизнь, свидетельством того, что у неё есть создатель. Их также интересует, сможет ли теория струн в конечном счете исключить существование Бога; почему Стивен Хокинг утверждает, что Вселенная могла быть создана стихийно; как продвинутая цивилизация в другой Вселенной могла создать нашу.



Доп. информация: Часть эпизодов реализована в псевдо-3Д.
Эпизоды 1 - 3 шестого сезона тут


pic.pic.pic.pic.pic.pic pic
За исходные BD 3D спасибо pic и mebelrus!


Качество: BDRip (by Ash61)
Контейнер: MKV
Формат 3D: Half OverUnder / Вертикальная анаморфная стереопара
Порядок ракурсов: левый ракурс первый
Видео кодек: x264
Аудио кодек: AC3


Видео: AVC / 23,976 fps / 1920х1080p / 14.5; 17.0; 16.0; 14.3 Mbps
Аудио:
#1 - Русский / AC3 / 48 KHz / 5.1 ch / 640 Kbps (Дубляж - BD 3D Rus)
#2 - Английский / AC3 / 48 KHz / 5.1 ch / 640 Kbps (Original - BD 3D Rus)
Субтитры: Отсутствуют

MediaInfo первого файла (остальные отличаются только битрейтом видео)
General
Unique ID : 205438405731401214121853489174493202076 (0x9A8DFF6B6621E3449E4F86DAFA53069C)
Complete name : E:\TheUniverse(s06e04-e07)(2011)3D-halfOU(Ash61)\TheUniverse(s06e04)CrashLandingOnMars(2011)3D-halfOU(Ash61).mkv
Format : Matroska
Format version : Version 2
File size : 4.96 GiB
Duration : 44mn 4s
Overall bit rate : 16.1 Mbps
Movie name : Вселенная (s06e04): Остаться в живых на Марсе / The Universe (s06e04): Crash Landing on Mars (2011) 3D
Encoded date : UTC 2014-08-23 14:59:18
Writing application : mkvmerge v5.8.0 ('No Sleep / Pillow') built on Sep 2 2012 15:37:04
Writing library : libebml v1.2.3 + libmatroska v1.3.0
Video
ID : 1
Format : AVC
Format/Info : Advanced Video Codec
Format profile : High@L4.1
Format settings, CABAC : Yes
Format settings, ReFrames : 4 frames
Codec ID : V_MPEG4/ISO/AVC
Duration : 44mn 4s
Bit rate : 14.5 Mbps
Width : 1 920 pixels
Height : 1 080 pixels
Display aspect ratio : 16:9
Frame rate mode : Constant
Frame rate : 23.976 fps
Color space : YUV
Chroma subsampling : 4:2:0
Bit depth : 8 bits
Scan type : Progressive
Bits/(Pixel*Frame) : 0.292
Stream size : 4.46 GiB (90%)
Title : BDRip by Ash61
Writing library : x264 core 138 r2358 9e941d1
Encoding settings : cabac=1 / ref=4 / deblock=1:-3:-3 / analyse=0x3:0x113 / me=umh / subme=10 / psy=1 / psy_rd=1.00:0.15 / mixed_ref=1 / me_range=32 / chroma_me=1 / trellis=2 / 8x8dct=1 / cqm=0 / deadzone=21,11 / fast_pskip=1 / chroma_qp_offset=-3 / threads=12 / lookahead_threads=2 / sliced_threads=0 / nr=0 / decimate=1 / interlaced=0 / bluray_compat=0 / constrained_intra=0 / bframes=9 / b_pyramid=2 / b_adapt=2 / b_bias=0 / direct=3 / weightb=1 / open_gop=0 / weightp=2 / keyint=250 / keyint_min=23 / scenecut=40 / intra_refresh=0 / rc_lookahead=60 / rc=crf / mbtree=1 / crf=17.5 / qcomp=0.70 / qpmin=0 / qpmax=69 / qpstep=4 / vbv_maxrate=40000 / vbv_bufsize=30000 / crf_max=0.0 / nal_hrd=none / frame-packing=4 / ip_ratio=1.40 / aq=1:0.70
Language : English
Default : Yes
Forced : No
Audio #1
ID : 2
Format : AC-3
Format/Info : Audio Coding 3
Mode extension : CM (complete main)
Format settings, Endianness : Big
Codec ID : A_AC3
Duration : 44mn 4s
Bit rate mode : Constant
Bit rate : 640 Kbps
Channel(s) : 6 channels
Channel positions : Front: L C R, Side: L R, LFE
Sampling rate : 48.0 KHz
Bit depth : 16 bits
Compression mode : Lossy
Stream size : 202 MiB (4%)
Title : Одноголосый закадровый - BD 3D Rus
Language : Russian
Default : Yes
Forced : No
Audio #2
ID : 3
Format : AC-3
Format/Info : Audio Coding 3
Mode extension : CM (complete main)
Format settings, Endianness : Big
Codec ID : A_AC3
Duration : 44mn 4s
Bit rate mode : Constant
Bit rate : 640 Kbps
Channel(s) : 6 channels
Channel positions : Front: L C R, Side: L R, LFE
Sampling rate : 48.0 KHz
Bit depth : 16 bits
Compression mode : Lossy
Stream size : 202 MiB (4%)
Title : Original - BD 3D Rus
Language : English
Default : No
Forced : No
Menu
00:00:00.000 : :1
00:05:40.006 : :2
00:10:16.199 : :3
00:16:28.571 : :4
00:22:01.654 : :5
00:27:30.691 : :6
00:33:04.941 : :7
00:38:38.775 : :8
 
Скриншоты
pic pic pic pic pic pic pic pic pic pic pic pic pic pic pic pic
 
Для оценки 3Д - Анимированные скрины
pic
pic
pic
pic
pic
pic
pic
pic
pic
pic
pic
pic
pic
pic
pic
pic

Статистика торрента
Раздают: 71 Качают: 181 Размер: 21.02GB Скачали: 22
Имя файла: 37593_-rutracker.org-.torrent
Похожие торренты
Отзывы пользователей
Добавить отзыв