1.14GB / Закат солнца под Евпаторией в 3D. в 3Д / 3D [2011, Любительское видео] Half SideBySide / Горизонтальная анаморфная стереопара

Категория: фильмы » 3D
рейтинг из 5
  • Добавил: zlidny
  • Дата: 25/10/14, 10:53:00
  • Просмотры: 332
  • Отзывы: 0
?????
Название игры:
Год выхода игры:
Жанр игры: 3D

Год выпуска: 2011
Страна: Украина
Жанр: Любительское видео
Продолжительность: 00:26:22
Перевод: Не требуется
Русские субтитры: нет
Описание: Закат солнца, снят перед Евпаторией на берегу моря. Видео любительское, одна из первых попыток съемки 3D. Конечно солнце не тот объект который можно рассмотреть в 3D, но вдруг кому то будет интересно, прибой моря тоже присутствует.
Видео 100% можно смотреть на телевизоре Samsung UE-40 C7000 - проверено.
Качество:
Контейнер: mp4
Формат 3D: Half SideBySide / Горизонтальная анаморфная стереопара
Порядок ракурсов: левый ракурс первый
Видео кодек: MPEG-4
Аудио кодек: AAC
Видео: MPEG-4 6213 Kbps 1280 х 720 16:9 30.000 fps
Аудио: AAC 64.0 Kbps 1 channel 24.0 KHz 12.1 MiB

MediaInfo
General
Complete name :Zakat_More_Evpatoriya_3D.mp4
Format : MPEG-4
Format profile : 3GPP Media Release 4
Codec ID : 3gp4
File size : 1.14 GiB
Duration : 26mn 22s
Overall bit rate : 6 213 Kbps
Law rating : (empty)
Released date : 0
Encoded date : UTC 2011-09-25 15:14:39
Tagged date : UTC 2011-09-25 15:14:39
Classification : (empty)
Video
ID : 1
Format : AVC
Format/Info : Advanced Video Codec
Format profile : Baseline@L3.1
Format settings, CABAC : No
Format settings, ReFrames : 1 frame
Format settings, GOP : M=1, N=60
Codec ID : avc1
Codec ID/Info : Advanced Video Coding
Duration : 26mn 22s
Bit rate mode : Variable
Bit rate : 6 144 Kbps
Maximum bit rate : 6 144 Kbps
Width : 1 280 pixels
Height : 720 pixels
Display aspect ratio : 16:9
Frame rate mode : Variable
Frame rate : 30.000 fps
Minimum frame rate : 1.183 fps
Maximum frame rate : 1 000.000 fps
Color space : YUV
Chroma subsampling : 4:2:0
Bit depth : 8 bits
Scan type : Progressive
Bits/(Pixel*Frame) : 0.222
Stream size : 1.13 GiB (99%)
Language : English
Encoded date : UTC 2011-09-25 15:14:39
Tagged date : UTC 2011-09-25 15:14:39
Audio
ID : 2
Format : AAC
Format/Info : Advanced Audio Codec
Format profile : LC
Codec ID : 40
Duration : 26mn 22s
Bit rate mode : Constant
Bit rate : 64.0 Kbps
Channel(s) : 1 channel
Channel positions : Front: C
Sampling rate : 24.0 KHz
Compression mode : Lossy
Stream size : 12.1 MiB (1%)
Language : English
Encoded date : UTC 2011-09-25 15:14:39
Tagged date : UTC 2011-09-25 15:14:39
 
Скриншоты

pic
pic
pic
pic


Статистика торрента
Раздают: 328 Качают: 38 Размер: 1.14GB Скачали: 29
Имя файла: 38826_-rutracker.org-.torrent
Похожие торренты
Отзывы пользователей
Добавить отзыв