14.65GB / Убойные серферы в 3Д / Storm Surfers 3D (Кристофер Нелиус, Джастин МакМиллан / Christopher Nelius, Justin McMillan) [2012, Докумен

Категория: фильмы » 3D
рейтинг из 5
  • Добавил: zlidny
  • Дата: 23/09/14, 20:08:09
  • Просмотры: 240
  • Отзывы: 0
?????
Название игры:
Год выхода игры:
Жанр игры: 3D

pic


Убойные серферы
Storm Surfers 3D


Год выпуска: 2012
Страна: Австралия (XLRator Media, Madman, Screen Australia, 6ixty Foot Films, Red Bull Media House)
Жанр: Документальный, Приключения
Продолжительность: 01:35:19
Перевод: Профессиональный двухголосый закадровый (Фирма "Позитив" по заказу Телеагентства "Русский репортаж")
Режиссеры: Кристофер Нелиус, Джастин МакМиллан / Christopher Nelius, Justin McMillan
В фильме снимались: Tom Carroll, Ross Clark-Jones, Ben Matson, Kelly Slater (11-тикратный чемпион мира), ...
Описание: Проект, который демонстрирует вершины мастерства двух лучших серферов планеты. Для двукратного чемпиона мира Тома Кэррола и его ближайшего друга и соперника Росса Кларка-Джоунса океанские штормовые волны — не просто увлечение длиною в жизнь. Это вызов, который они бросают своему собственному страху. Но однажды метеоролог, гуру всех австралийских серфингистов, Бэн Мэтсон рассказывает им о волне, которую невозможно победить. Полет на волне высотой с небоскреб и длиной в расстояние между Москвой и Питером?
Как подготовиться к такому? Мастера утверждают, что залог успеха не только в техническом совершенстве, но и в серьезной интеллектуальной подготовке. Между тем, человек — это всего-навсего человек. Инстинкт самосохранения нельзя победить. На ваших глазах Том и Росс пытаются совершить настоящий подвиг.


Премьера: 14 августа 2012 (29 августа 2013)
pic.pic.pic pic


Качество: BDRip (by Ash61)
Контейнер: MKV
Формат 3D: Half OverUnder / Вертикальная анаморфная стереопара
Порядок ракурсов: левый ракурс первый
Видео кодек: x264
Аудио кодек: AC3


Видео: AVC / 23,976 fps / 1920х1080p / 20.7 Mbps
Аудио:
#1 - Русский / AC3 / 48 KHz / 2 ch / 192 Kbps (DVO - с TVrip) Edit by Ash61
#2 - Английский / AC3 / 48 KHz / 5.1 ch / 640 Kbps (Original)
Субтитры: Отсутствуют

MediaInfo
General
Unique ID : 228155670722580738082050459154550706146 (0xABA52F0F0017379CAF1928D569F14FE2)
Complete name : E:\Downloads\StormSurfers(2012)3D-halfOU(Ash61)Rus.mkv
Format : Matroska
Format version : Version 2
File size : 14.6 GiB
Duration : 1h 35mn
Overall bit rate : 22.0 Mbps
Movie name : Убойные серферы / Storm Surfers 3D (2012) 3D
Encoded date : UTC 2013-10-05 19:53:21
Writing application : mkvmerge v5.8.0 ('No Sleep / Pillow') built on Sep 2 2012 15:37:04
Writing library : libebml v1.2.3 + libmatroska v1.3.0
Video
ID : 1
Format : AVC
Format/Info : Advanced Video Codec
Format profile : High@L4.1
Format settings, CABAC : Yes
Format settings, ReFrames : 4 frames
Codec ID : V_MPEG4/ISO/AVC
Duration : 1h 35mn
Bit rate : 20.7 Mbps
Width : 1 920 pixels
Height : 1 080 pixels
Display aspect ratio : 16:9
Frame rate mode : Constant
Frame rate : 23.976 fps
Color space : YUV
Chroma subsampling : 4:2:0
Bit depth : 8 bits
Scan type : Progressive
Bits/(Pixel*Frame) : 0.417
Stream size : 13.8 GiB (94%)
Title : BDRip by Ash61
Writing library : x264 core 129 r2245 bc13772
Encoding settings : cabac=1 / ref=4 / deblock=1:-3:-3 / analyse=0x3:0x113 / me=umh / subme=10 / psy=1 / psy_rd=1.00:0.15 / mixed_ref=1 / me_range=32 / chroma_me=1 / trellis=2 / 8x8dct=1 / cqm=0 / deadzone=21,11 / fast_pskip=1 / chroma_qp_offset=-3 / threads=12 / lookahead_threads=2 / sliced_threads=0 / nr=0 / decimate=1 / interlaced=0 / bluray_compat=0 / constrained_intra=0 / bframes=8 / b_pyramid=2 / b_adapt=2 / b_bias=0 / direct=3 / weightb=1 / open_gop=0 / weightp=2 / keyint=250 / keyint_min=23 / scenecut=40 / intra_refresh=0 / rc_lookahead=60 / rc=crf / mbtree=1 / crf=17.5 / qcomp=0.70 / qpmin=0 / qpmax=69 / qpstep=4 / vbv_maxrate=40000 / vbv_bufsize=30000 / crf_max=0.0 / nal_hrd=none / frame-packing=4 / ip_ratio=1.40 / aq=1:0.70
Language : English
Default : Yes
Forced : No
Audio #1
ID : 2
Format : AC-3
Format/Info : Audio Coding 3
Mode extension : CM (complete main)
Format settings, Endianness : Big
Codec ID : A_AC3
Duration : 1h 35mn
Bit rate mode : Constant
Bit rate : 192 Kbps
Channel(s) : 2 channels
Channel positions : Front: L R
Sampling rate : 48.0 KHz
Bit depth : 16 bits
Compression mode : Lossy
Stream size : 131 MiB (1%)
Title : Двухголосый закадровый - TV-rip (edit by Ash61)
Language : Russian
Default : Yes
Forced : No
Audio #2
ID : 3
Format : AC-3
Format/Info : Audio Coding 3
Mode extension : CM (complete main)
Format settings, Endianness : Big
Codec ID : A_AC3
Duration : 1h 35mn
Bit rate mode : Constant
Bit rate : 640 Kbps
Channel(s) : 6 channels
Channel positions : Front: L C R, Side: L R, LFE
Sampling rate : 48.0 KHz
Bit depth : 16 bits
Compression mode : Lossy
Stream size : 436 MiB (3%)
Title : Original
Language : English
Default : No
Forced : No
 
Скриншоты
pic pic pic pic pic pic pic pic pic pic pic pic pic pic pic pic pic pic
 
Для оценки 3Д - Анимированные скрины
pic
pic
pic
pic
pic
pic
pic
pic
pic
pic
pic
pic
pic
pic
pic
pic
pic
pic
 
Техн. детали съёмки
  • Формат изображения: 1.78 : 1
  • Камера: Canon 550D (time-lapse photography)
    GoPro 3D
    Panasonic AG-3DA1 (3D Nanoflash)
    SI 2K (ET Dark Country 3D rig)
    Sony EX3 (Side-by-Side rig)
    Sony PMW-TD300 (3D Nanoflash)
  • Изображение: цветное
  • Язык: английский

Статистика торрента
Раздают: 57 Качают: 169 Размер: 14.65GB Скачали: 18
Имя файла: 37816_-rutracker.org-.torrent
Похожие торренты
Отзывы пользователей
Добавить отзыв