13.45GB / Чудаки 3Д / Jackass 3D (Джефф Треймейн / Jeff Tremaine) [2010, Комедия, шоу, HDTV] Half SideBySide / Горизонтальная анаморфная сте

Категория: фильмы » 3D
рейтинг из 5
  • Добавил: zlidny
  • Дата: 25/10/14, 11:41:32
  • Просмотры: 376
  • Отзывы: 0
?????
Название игры:
Год выхода игры:
Жанр игры: 3D

Год выпуска: 2010
Страна: США, Румыния
Жанр: Комедия, шоу
Продолжительность: 01:34:01
Перевод: Профессиональный (дублированный)
Русские субтитры: нет
Режиссёр: Джефф Треймейн
В ролях: Джонни Ноксвил, Бэм Марджера, Райан Данн, Стив-О, Джейсон Акуна, Престон Лэси, Крис Понтиус, Эрен МакГехи, Дэйв Инглэнд
Описание: Скандальная, саркастическая, грубая и абсолютно сумасбродная команда Джонни Ноксвила опять готова шокировать, смешить и срывать крышу, и в этот раз они удивят еще больше. Теперь каждый может стать почти соучастником событий, поскольку наблюдать за выходками чудаков можно будет в формате 3D. Фильм состоит из ряда экстремальных трюков, нерядовых шуток и безумных экспериментов, — все это испытает на собственной шкуре эта безумная компания. Никогда не знаешь — плакать или смеяться от их выходок, ведь они демонстрируют то, что каждый тайком хотел сделать, но боялся попробовать.


бюджет $20 000 000
сборы в США $117 229 692
сборы в мире + $53 106 162 = $170 335 854
сборы в России $4 346 700


picpic


Качество: HDTV
Формат: ts
Формат 3D: Half SideBySide / Горизонтальная анаморфная стереопара
Видео кодек: mpeg2
Аудио кодек: AC3, MPA
Видео: MPEG2 Video 1920x1080i 29.970 fps 18.8 Mbps
Аудио 1: Russian : Dolby AC3 48000Hz 6ch 448 kbps Дубляж
Аудио 2: English : MPA 48000Hz 2ch 256 kbps

me
Format : MPEG-TS
File size : 13.5 GiB
Duration : 1h 34mn
Overall bit rate : 20.5 Mbps
Maximum Overall bit rate : 35.5 Mbps
Video
ID : 4113 (0x1011)
Menu ID : 1 (0x1)
Format : MPEG Video
Format version : Version 2
Format profile : Main@High
Format settings, BVOP : Yes
Format settings, Matrix : Default
Format settings, GOP : M=3, N=15
Codec ID : 2
Duration : 1h 34mn
Bit rate mode : Variable
Bit rate : 18.8 Mbps
Nominal bit rate : 20.0 Mbps
Width : 1 920 pixels
Height : 1 080 pixels
Display aspect ratio : 16:9
Frame rate : 29.970 fps
Color space : YUV
Chroma subsampling : 4:2:0
Bit depth : 8 bits
Scan type : Interlaced
Scan order : Top Field First
Bits/(Pixel*Frame) : 0.302
Stream size : 12.3 GiB (92%)
Audio #1
ID : 4352 (0x1100)
Menu ID : 1 (0x1)
Format : AC-3
Format/Info : Audio Coding 3
Mode extension : CM (complete main)
Codec ID : 129
Duration : 1h 34mn
Bit rate mode : Constant
Bit rate : 448 Kbps
Channel(s) : 6 channels
Channel positions : Front: L C R, Side: L R, LFE
Sampling rate : 48.0 KHz
Bit depth : 16 bits
Video delay : -67ms
Stream size : 301 MiB (2%)
Language : Russian
Audio #2
ID : 4353 (0x1101)
Menu ID : 1 (0x1)
Format : MPEG Audio
Format version : Version 1
Format profile : Layer 2
Codec ID : 4
Duration : 1h 34mn
Bit rate mode : Constant
Bit rate : 256 Kbps
Channel(s) : 2 channels
Sampling rate : 48.0 KHz
Video delay : -53ms
Stream size : 172 MiB (1%)
Language : English
 
Скриншоты

pic pic pic pic pic pic pic pic


Статистика торрента
Раздают: 189 Качают: 171 Размер: 13.45B Скачали: 27
Имя файла: 38834_-rutracker.org-.torrent
Похожие торренты
Отзывы пользователей
Добавить отзыв