10.28GB / Прага(Чехия) / Prague 3D (КИВ) в 2-х Частях ( 1 Часть - Мала Страна , Градчаны, Пражский град.) [2012, Документальное кино-путевод

Категория: фильмы » 3D
рейтинг из 5
  • Добавил: zlidny
  • Дата: 25/10/14, 11:36:58
  • Просмотры: 455
  • Отзывы: 0
?????
Название игры:
Год выхода игры:
Жанр игры: 3D

pic

Год выпуска: 2012
Страна: Россия
Жанр: Документальное Любительское кино. Видео-путешествие.
Продолжительность: 0:45:00
Перевод: Не требуется
pic


pic Описание:


Прага — столица и крупнейший город Чехии.
Мала Страна
Здесь сосредоточены костелы, церкви и замки, принадлежащие к различным архитектурным стилям.
Костел св. Микулаша — разделяет Малостранскую площадь на 2 части. Был построен в 1704—1756 г.г. Кристофом и Игнацем Динценгоферами.
Колонна Пресвятой Троицы — чумной столб перед костелом св. Микулаша.
Лорета- является одним из самых примечательных памятников архитектуры стиля барокко, «детище» самого известного семейства архитекторов чешского барокко Дитценгоферов.
Страговский монастырь- Неотделимой частью пражской панорамы является комплекс Страговского монастыря с костелом Вознесения Девы Марии. Костел в стиле барокко был построен на месте романской базилики XII века.
Нерудова улица- это очень живописная улочка, которая ведет к Пражского Граду.
Градчаны -один из старейших районов Праги, в котором, несмотря на относительно небольшие размеры, находится огромное количество памятников архитектуры. Расположены Градчаны недалеко от Пражского Града и образуют с ним единое целое.
Пражский град
Собор Св.Вита- католический собор в Праге, резиденция Пражского архиепископа. Полное название собора – Собор Святого Вита, Святого Вацлава и Святого Адальберта. Он расположен на территории Пражского Града, здесь находятся усыпальницы многих королей Богемии. Этот собор являет собой превосходный образец Готической архитектуры и является самой большой и самой важной церковью в стране.
Слышал фразу: "Прагу можно обойти за 3 дня " Можно и за день, но я уверен и года мало...


Качество: HDTV
Контейнер: MPEG-Video
Формат 3D: AnamorphSideBySide / Горизонтальная анаморфная стереопара
Порядок ракурсов: левый ракурс первый
Видео кодек: MPEG-PS
Аудио кодек: AC-3
pic Видео: MPEG-VIDEO 31,3 Мбит/сек, 1920х1080, 16:9, 25 кадров/сек. (PAL)
pic Аудио: AC-3 448 Кбит/сек, 48,0 Кгц,16 Бит, 6 Каналов.

Другие 3D фильмы о городах и странах (Любительские)
MediaInfo
General
Complete name : S:\Моё кино архив\Моё HD кино в 3D для инета\Кино\КИВ Прага 3D.mpg
Format : MPEG-PS
File size : 10.3 GiB
Duration : 45mn 26s
Overall bit rate mode : Variable
Overall bit rate : 32.4 Mbps
Video
ID : 224 (0xE0)
Format : MPEG Video
Format version : Version 2
Format profile : Main@High
Format settings, BVOP : No
Format settings, Matrix : Default
Format settings, GOP : M=3, N=15
Duration : 45mn 26s
Bit rate mode : Variable
Bit rate : 31.3 Mbps
Maximum bit rate : 34.0 Mbps
Width : 1 920 pixels
Height : 1 080 pixels
Display aspect ratio : 16:9
Frame rate : 25.000 fps
Color space : YUV
Chroma subsampling : 4:2:0
Bit depth : 8 bits
Scan type : Interlaced
Scan order : Top Field First
Compression mode : Lossy
Bits/(Pixel*Frame) : 0.604
Time code of first frame : 00:00:00:00
Time code source : Group of pictures header
Stream size : 9.94 GiB (97%)
Audio
ID : 189 (0xBD)-128 (0x80)
Format : AC-3
Format/Info : Audio Coding 3
Mode extension : CM (complete main)
Format settings, Endianness : Big
Muxing mode : DVD-Video
Duration : 45mn 26s
Bit rate mode : Constant
Bit rate : 448 Kbps
Channel(s) : 6 channels
Channel positions : Front: L C R, Side: L R, LFE
Sampling rate : 48.0 KHz
Bit depth : 16 bits
Compression mode : Lossy
Stream size : 146 MiB (1%)
Скриншоты

picpicpicpicpicpicpicpicpicpicpic


Статистика торрента
Раздают: 2 Качают: 131 Размер: 10.28GB Скачали: 19
Имя файла: 38832_-rutracker.org-.torrent
Похожие торренты
Отзывы пользователей
Добавить отзыв